вход на сайт

Имя пользователя :
Пароль :

Восстановление пароля Регистрация
Мастер / The Master (Пол Томас Андерсон, Драма, 2012) [BDRip 720p, Дубляж, Оригинал (английский), Sub]
Рейтинг:
(голосов: 1)



[img]{THEME}/images/logopost.png[/img]



Мастер / The Master


Год выпуска: 2012
Страна: США
Производство: Annapurna Pictures, Ghoulardi Film Company, The Weinstein Company LLC
Жанр: Драма

Режиссёр: Пол Томас Андерсон
В ролях: Хоакин Феникс, Филип Сеймур Хоффман, Эми Адамс, Лора Дерн, Джесси Племонс, Эмбир Чайлдерс, Рами Малек, Мартин Д. Дью, Кевин Дж. О’Коннор, Патриция МакКормак

Перевод: Дубляж, Оригинал (английский)
Субтитры: Russian, English

Описание: Демобилизованный моряк с загадочным прошлым не может найти места в послевоенной Америке. Он меняет одну работу за другой, пока случайно не знакомится с харизматичным создателем религиозного культа, известным писателем и философом. К удивлению приверженцев модного учения, их гуру делает агрессивного маргинала своим ближайшим помощником. По мере того как новая вера завоевывает поклонников, бывший бродяга начинает задаваться вопросами о том, во что он верит, и кем является его наставник на самом деле. Но некоторым тайнам лучше оставаться нераскрытыми…

Релиз от:Качество: BDRip 720p |Сэмпл
Продолжительность: 02:17:30 час.


Формат: MKV
Видео кодек: x264
Аудио кодек: DTS
Видео: 1280x692 (1,85:1), 23,976 fps, x264 ~5 395 kbps avg , 0.254 bit/pixel
Аудио#1: 48 kHz/16-bit, DTS, 3/2 (L,C,R,l,r) + LFE ch, ~1510.00 kbps avg - (Дубляж)
Аудио#2: 48 kHz/16-bit, DTS, 3/2 (L,C,R,l,r) + LFE ch, ~1510.00 kbps avg - (Оригинал)

Дата премьеры (мир): 1 сентября 2012
Дата премьеры (РФ): 14 февраля 2013, «Вольга»

MediaInfo ▼
Complete name : The.Master.2012.D.BDRip.720p.IRONCLUB.mkv
Format : Matroska
Format version : Version 2
File size : 8.25 GiB
Duration : 2h 17mn
Overall bit rate : 8 585 Kbps
Movie name : IRONCLUB
Encoded date : UTC 2013-03-12 12:47:06
Writing application : mkvmerge v5.2.0 (I cant explain) built on Dec 18 2011 18:12:03
Writing library : libebml v1.2.3 + libmatroska v1.3.0
Attachment : Yes / Yes

Video
ID : 1
Format : AVC
Format/Info : Advanced Video Codec
Format profile : [email protected]
Format settings, CABAC : Yes
Format settings, ReFrames : 9 frames
Codec ID : V_MPEG4/ISO/AVC
Duration : 2h 17mn
Bit rate : 5 395 Kbps
Width : 1 280 pixels
Height : 692 pixels
Display aspect ratio : 1.85:1
Frame rate : 23.976 fps
Color space : YUV
Chroma subsampling : 4:2:0
Bit depth : 8 bits
Scan type : Progressive
Bits/(Pixel*Frame) : 0.254
Stream size : 5.18 GiB (63%)
Title : The Master 2012 720p BluRay DD 5.1 x264-tranc
Writing library : x264 core 129 r2230 1cffe9f
Encoding settings : cabac=1 / ref=9 / deblock=1:-3:-3 / analyse=0x3:0x133 / me=umh / subme=11 / psy=1 / psy_rd=1.00:0.00 / mixed_ref=1 / me_range=24 / chroma_me=1 / trellis=2 / 8x8dct=1 / cqm=0 / deadzone=21,11 / fast_pskip=0 / chroma_qp_offset=-2 / threads=6 / lookahead_threads=1 / sliced_threads=0 / nr=0 / decimate=0 / interlaced=0 / bluray_compat=0 / constrained_intra=0 / bframes=9 / b_pyramid=2 / b_adapt=2 / b_bias=0 / direct=3 / weightb=1 / open_gop=0 / weightp=2 / keyint=250 / keyint_min=23 / scenecut=40 / intra_refresh=0 / rc=crf / mbtree=0 / crf=16.1 / qcomp=0.60 / qpmin=0 / qpmax=69 / qpstep=4 / ip_ratio=1.40 / pb_ratio=1.30 / aq=1:0.90
Language : English
Default : Yes
Forced : Yes

Audio #1
ID : 2
Format : DTS
Format/Info : Digital Theater Systems
Codec ID : A_DTS
Duration : 2h 17mn
Bit rate mode : Constant
Bit rate : 1 510 Kbps
Channel(s) : 6 channels
Channel positions : Front: L C R, Side: L R, LFE
Sampling rate : 48.0 KHz
Bit depth : 24 bits
Compression mode : Lossy
Stream size : 1.45 GiB (18%)
Title : DTS 5.1 @ 1536 kbps - Dub, BD RUS
Language : Russian
Default : Yes
Forced : Yes

Audio #2
ID : 3
Format : DTS
Format/Info : Digital Theater Systems
Codec ID : A_DTS
Duration : 2h 17mn
Bit rate mode : Constant
Bit rate : 1 510 Kbps
Channel(s) : 6 channels
Channel positions : Front: L C R, Side: L R, LFE
Sampling rate : 48.0 KHz
Bit depth : 24 bits
Compression mode : Lossy
Stream size : 1.45 GiB (18%)
Title : DTS 5.1 @ 1536 kbps
Language : English
De
1ee06c79b39e64e4db647003ff75a865e877fe0aМастер / The Master (Пол Томас Андерсон, Драма, 2012) [BDRip 720p, Дубляж, Оригинал (английский), Sub] Мастер / The Master (Пол Томас Андерсон, Драма, 2012) [BDRip 720p, Дубляж, Оригинал (английский), Sub] " />

Аплоадер: Админ, дата: 12-03-2013, 21:13, торрент скачан: 359 раз

Понравилась раздача? Посмотрите эти:
  • Отверженные / Les Miserables (Том Хупер, Мюзикл, драма, мелодрама, 2012) [B ...
  • Мастер / The Master (Пол Томас Андерсон, драма, 2012) [BDRip-AVC, Дубляж, О ...
  • Мастер / The Master (Пол Томас Андерсон, драма, 2012) [BDRip-AVC, Дубляж, А ...
  • Железный Кулак [Театральная версия] / The Man with the Iron Fists [Theatric ...
  • Хичкок / Hitchcock (Саша Джерваси, Драма, история, биография, 2012) [BDRip ...
  • Мастер / The Master (Пол Томас Андерсон, Драма, 2012) [HDRip, Дубляж]
  • Мастер / The Master (Пол Томас Андерсон, Драма, 2012) [BDRip 1080p, Дубляж, ...
  • Мастер / The Master (Пол Томас Андерсон, Драма, 2012) [BDRip, Дубляж]
  • Мастер / The Master (Пол Томас Андерсон, Драма, 2012) [BDRip-AVC, Дубляж, О ...
  • Мастер / Master (Пол Томас Андерсон, Драма, 2012) [320x240] [HDRip, Дублиро ...
  • Мастер / The Master (Пол Томас Андерсон, Драма, 2012) [HDRip-AVC, Дубляж]
  • Жизнь Пи / Life Of Pi (Энг Ли, Драма, приключения, 2012) [BDRip 720p, Профе ...
  • [EN] Мастер / The Master (Пол Томас Андерсон, драма, 2012) [DVDRip, оригина ...
  • Весенние надежды / Hope Springs (Дэвид Фрэнкел, Драма, мелодрама, комедия, ...
  • Анна Каренина / Anna Karenina (Джо Райт, Драма, мелодрама, 2012) [BDRip 720 ...
  • Толстяк на ринге / Here Comes the Boom (Фрэнк Корачи, Боевик, комедия, 201 ...
  • Хорошо быть тихоней / The Perks of Being a Wallflower (Стивен Чбоски, Драма ...
  • «Весёлые» каникулы / Get the Gringo (Адриан Грюнберг, Боевик, комедия, 2012 ...
  • Ворон / The Raven (Джеймс МакТиг, Триллер, детектив, 2012) [BDRip 720p, Дуб ...
  • Медальон / Stolen (Саймон Уэст, Боевик, триллер, 2012) [BDRip 720p, Дубляж, ...
  • Рок на века / Rock of Ages (Адам Шенкман, Мюзикл, драма, мелодрама, комедия ...
  • Супер Майк / Magic Mike (Стивен Содерберг, Драма, комедия, 2012) [BDRip 720 ...
  • Странная жизнь Тимоти Грина / The Odd Life of Timothy Green (Питер Хеджес, ...
  • Эволюция Борна / The Bourne Legacy (Тони Гилрой, Боевик, триллер, детектив, ...
  • [Трейлер] Мастер / The Master (Пол Томас Андерсон, драма) [HDRip, Дублирова ...
  • Информация
    Посетители, находящиеся в группе Гости, не могут оставлять комментарии к данной публикации.