вход на сайт

Имя пользователя :
Пароль :

Восстановление пароля Регистрация
Хичкок / Hitchcock (Саша Джерваси, Драма, история, биография, 2012) [BDRip 720p, Дубляж, Оригинал (английский), Sub]
Рейтинг:
(голосов: 1)



[img]{THEME}/images/logopost.png[/img]



Хичкок / Hitchcock
«История о фильме, который потряс мир»


Год выпуска: 2012
Страна: США
Производство: Cold Spring Pictures, Fox Searchlight Pictures, The Montecito Picture Company
Жанр: Драма, история, биография

Режиссёр: Саша Джерваси
В ролях: Энтони Хопкинс, Хелен Миррен, Скарлетт Йоханссон, Тони Коллетт, Дэнни Хьюстон, Джессика Бил, Майкл Стулбарг, Майкл Уинкотт, Джеймс Д’Арси, Ричард Портноу

Перевод: Дубляж, Оригинал (английский)
Субтитры:Russian [R5, jerichOne], Ukrainian, English, Spanish

Описание: Известный режиссер отваживается на эксперимент: отойти от ставших его визитной карточкой дорогостоящих фильмов в жанре «саспенс» и снять скромную, к тому же черно-белую картину «Психо». В процессе работы будущий «мастер страха» вглядывается в темные бездны человеческой души, чтобы найти те нервные окончания, прикасаясь к которым он мог бы, как по клавишам, сыграть на эмоциях зрителя настоящую симфонию ужаса.

Релиз от:Качество: BDRip 720p |Сэмпл
Продолжительность: 01:38:20 час.


Формат: MKV
Видео кодек: x264
Аудио кодек: DTS
Видео: 1280x534 (2.40:1), 23.976 fps, x264 ~4 963 kbps avg, 0.303 bit/pixel
Аудио#1: 48 kHz/24-bit, DTS, 3/2 (L,C,R,l,r) + LFE ch, ~755.00 kbps avg - (Дубляж)
Аудио#2: 48 kHz/16-bit, DTS, 3/2 (L,C,R,l,r) + LFE ch, ~1510.00 kbps avg - (Оригинал)

Дата премьеры (мир): 1 ноября 2012
Дата премьеры (РФ): 21 февраля 2013, «Двадцатый Век Фокс СНГ»

MediaInfo ▼
General
Unique ID : 205259098072229640303055448023888092202 (0x9A6B76DE8FCCE554B0819B4B8BB4DC2A)
Complete name : Hitchcock.2012.720p.BluRay.DTS.Rus.Eng.Subs-IRONCLUB.mkv
Format : Matroska
Format version : Version 2
File size : 5.07 GiB
Duration : 1h 38mn
Overall bit rate : 7 374 Kbps
Movie name : IRONCLUB
Encoded date : UTC 2013-03-29 17:27:04
Writing application : mkvmerge v5.2.0 (I cant explain) built on Dec 18 2011 18:12:03
Writing library : libebml v1.2.3 + libmatroska v1.3.0

Video
ID : 1
Format : AVC
Format/Info : Advanced Video Codec
Format profile : [email protected]
Format settings, CABAC : Yes
Format settings, ReFrames : 12 frames
Codec ID : V_MPEG4/ISO/AVC
Duration : 1h 38mn
Bit rate : 4 963 Kbps
Width : 1 280 pixels
Height : 534 pixels
Display aspect ratio : 2.40:1
Frame rate : 23.976 fps
Color space : YUV
Chroma subsampling : 4:2:0
Bit depth : 8 bits
Scan type : Progressive
Bits/(Pixel*Frame) : 0.303
Stream size : 3.41 GiB (67%)
Title : Hitchcock 2012 720p BluRay x264 EbP
Writing library : x264 core 129 r2245 bc13772
Encoding settings : cabac=1 / ref=12 / deblock=1:-3:-3 / analyse=0x3:0x113 / me=tesa / subme=11 / psy=1 / psy_rd=0.90:0.03 / mixed_ref=1 / me_range=16 / chroma_me=1 / trellis=2 / 8x8dct=1 / cqm=0 / deadzone=21,11 / fast_pskip=0 / chroma_qp_offset=-3 / threads=12 / lookahead_threads=2 / sliced_threads=0 / nr=0 / decimate=0 / interlaced=0 / bluray_compat=0 / constrained_intra=0 / bframes=8 / b_pyramid=2 / b_adapt=2 / b_bias=0 / direct=3 / weightb=1 / open_gop=0 / weightp=2 / keyint=250 / keyint_min=23 / scenecut=40 / intra_refresh=0 / rc=crf / mbtree=0 / crf=15.0 / qcomp=0.60 / qpmin=0 / qpmax=69 / qpstep=4 / ip_ratio=1.20 / pb_ratio=1.30 / aq=1:0.70
Language : English
Default : Yes
Forced : Yes
Matrix coefficients : BT.709-5, BT.1361, IEC 61966-2-4 709, SMPTE RP177

Audio #1
ID : 2
Format : DTS
Format/Info : Digital Theater Systems
Codec ID : A_DTS
Duration : 1h 38mn
Bit rate mode : Constant
Bit rate : 755 Kbps
Channel(s) : 6 channels
Channel positions : Front: L C R, Side: L R, LFE
Sampling rate : 48.0 KHz
Bit depth : 24 bits
Compression mode : Lossy
Stream size : 531 MiB (10%)
Title : DTS 5.1 @ 768 kbps - Dub, BD EUR
Language : Russian
Default : Yes
Forced : Yes

Audio #2
ID : 3
Format : DTS
Format/Info : Digital Theater Systems
Codec ID : A_DTS
Duration : 1h 38mn
Bit rate mode : Constant
Bit rate : 1 510 Kbps
Channel(s) : 6 channels
Ch
41c1c4d84adbfe06604271c091605f9cd2ec8e70Хичкок / Hitchcock (Саша Джерваси, Драма, история, биография, 2012) [BDRip 720p, Дубляж, Оригинал (английский), Sub] Хичкок / Hitchcock (Саша Джерваси, Драма, история, биография, 2012) [BDRip 720p, Дубляж, Оригинал (английский), Sub] " />

Аплоадер: Админ, дата: 30-03-2013, 01:40, торрент скачан: 359 раз

Понравилась раздача? Посмотрите эти:
  • Отверженные / Les Miserables (Том Хупер, Мюзикл, драма, мелодрама, 2012) [B ...
  • Хичкок / Hitchcock (Саша Джерваси, Драма, история, биография, 2012) [BDRip, ...
  • Хичкок / Hitchcock (Саша Джерваси, Драма, история, биография, 2012) [BDRip- ...
  • Хичкок / Hitchcock (Саша Джерваси, Драма, история, биография, 2012) [BDRip, ...
  • Хичкок / Hitchcock (Саша Джерваси, Драма, история, биография, 2012) [BDRip, ...
  • Хичкок / Hitchcock (Саша Джерваси, драма, история, биография, 2012) [DVD9 R ...
  • Хичкок / Hitchcock (Саша Джерваси, Драма, история, биография, 2012) [BDRip- ...
  • Хичкок / Hitchcock (Саша Джерваси, драма, история, биография, 2012) [320x24 ...
  • Хичкок / Hitchcock (Саша Джерваси, драма, история, биография, 2012) [BDRip- ...
  • Хичкок / Hitchcock (Саша Джерваси, Драма, история, биография, 2012) [BDRip ...
  • Хичкок / Hitchcock (Саша Джерваси, драма, история, биография, 2012) [Blu-Ra ...
  • Мастер / The Master (Пол Томас Андерсон, Драма, 2012) [BDRip 720p, Дубляж, ...
  • Жизнь Пи / Life Of Pi (Энг Ли, Драма, приключения, 2012) [BDRip 720p, Профе ...
  • Весенние надежды / Hope Springs (Дэвид Фрэнкел, Драма, мелодрама, комедия, ...
  • Анна Каренина / Anna Karenina (Джо Райт, Драма, мелодрама, 2012) [BDRip 720 ...
  • Толстяк на ринге / Here Comes the Boom (Фрэнк Корачи, Боевик, комедия, 201 ...
  • Хорошо быть тихоней / The Perks of Being a Wallflower (Стивен Чбоски, Драма ...
  • Джок / Jock (Дункан МакНили, мультфильм, комедия, приключения, семейный, 20 ...
  • Ворон / The Raven (Джеймс МакТиг, Триллер, детектив, 2012) [BDRip 720p, Дуб ...
  • Медальон / Stolen (Саймон Уэст, Боевик, триллер, 2012) [BDRip 720p, Дубляж, ...
  • Третий лишний / Ted (Сет МакФарлейн, Фэнтези, комедия, 2012) [BDRip 720p, Д ...
  • Эволюция Борна / The Bourne Legacy (Тони Гилрой, Боевик, триллер, детектив, ...
  • Возлюбленные / Les bien-aimés (Кристоф Оноре, Драма, 2011) [BDRip 720p, Дуб ...
  • Слова / The Words [EXTENDED] (Ли Стернтал, Драма, мелодрама, 2012) [BDRip 7 ...
  • [Трейлер] Хичкок / Hitchcock (Саша Джерваси, драма, биография) [HDRip, Проф ...
  • Информация
    Посетители, находящиеся в группе Гости, не могут оставлять комментарии к данной публикации.