вход на сайт

Имя пользователя :
Пароль :

Восстановление пароля Регистрация
Хичкок / Hitchcock (Саша Джерваси, Драма, история, биография, 2012) [BDRip 1080p, Дубляж, Оригинал (английский), Sub]
Рейтинг:
(голосов: 1)



[img]{THEME}/images/logopost.png[/img]



Хичкок / Hitchcock
«История о фильме, который потряс мир»


Год выпуска: 2012
Страна: США
Производство: Cold Spring Pictures, Fox Searchlight Pictures, The Montecito Picture Company
Жанр: Драма, история, биография

Режиссёр: Саша Джерваси
В ролях: Энтони Хопкинс, Хелен Миррен, Скарлетт Йоханссон, Тони Коллетт, Дэнни Хьюстон, Джессика Бил, Майкл Стулбарг, Майкл Уинкотт, Джеймс Д’Арси, Ричард Портноу

Перевод: Дубляж, Оригинал (английский)
Субтитры:Russian [R5, jerichOne], Ukrainian, English, Spanish

Описание: Известный режиссер отваживается на эксперимент: отойти от ставших его визитной карточкой дорогостоящих фильмов в жанре «саспенс» и снять скромную, к тому же черно-белую картину «Психо». В процессе работы будущий «мастер страха» вглядывается в темные бездны человеческой души, чтобы найти те нервные окончания, прикасаясь к которым он мог бы, как по клавишам, сыграть на эмоциях зрителя настоящую симфонию ужаса.

Релиз от:Качество: BDRip 1080p |Сэмпл
Продолжительность: 01:38:20 час.


Формат: MKV
Видео кодек: x264
Аудио кодек: DTS
Видео: 1920x796 (2.40:1), 23.976 fps, x264 ~ 10.0 Mbps, 0.274 bit/pixel
Аудио#1: 48 kHz/24-bit, DTS, 3/2 (L,C,R,l,r) + LFE ch, ~755.00 kbps avg - (Дубляж)
Аудио#2: 48 kHz/16-bit, DTS, 3/2 (L,C,R,l,r) + LFE ch, ~1510.00 kbps avg - (Оригинал)

Дата премьеры (мир): 1 ноября 2012
Дата премьеры (РФ): 21 февраля 2013, «Двадцатый Век Фокс СНГ»

MediaInfo ▼
General
Unique ID : 209369577026387958905008937817932400326 (0x9D831D20F0BFE7019A081055F53186C6)
Complete name : Hitchcock.2012.1080p.BluRay.DTS.Rus.Eng.Subs-IRONCLUB.mkv
Format : Matroska
Format version : Version 2
File size : 8.44 GiB
Duration : 1h 38mn
Overall bit rate : 12.3 Mbps
Movie name : IRONCLUB
Encoded date : UTC 2013-03-29 17:32:17
Writing application : mkvmerge v5.2.0 (I cant explain) built on Dec 18 2011 18:12:03
Writing library : libebml v1.2.3 + libmatroska v1.3.0

Video
ID : 1
Format : AVC
Format/Info : Advanced Video Codec
Format profile : [email protected]
Format settings, CABAC : Yes
Format settings, ReFrames : 4 frames
Codec ID : V_MPEG4/ISO/AVC
Duration : 1h 38mn
Bit rate : 10.0 Mbps
Width : 1 920 pixels
Height : 796 pixels
Display aspect ratio : 2.40:1
Frame rate : 23.976 fps
Color space : YUV
Chroma subsampling : 4:2:0
Bit depth : 8 bits
Scan type : Progressive
Bits/(Pixel*Frame) : 0.274
Stream size : 6.72 GiB (80%)
Title : Hitchcock.2012.BluRay.1080p.DTS.x264-CHD
Writing library : x264 core 120 r2120 0c7dab9
Encoding settings : cabac=1 / ref=4 / deblock=1:-3:-3 / analyse=0x3:0x113 / me=umh / subme=10 / psy=1 / psy_rd=1.05:0.10 / mixed_ref=1 / me_range=48 / chroma_me=1 / trellis=2 / 8x8dct=1 / cqm=0 / deadzone=21,11 / fast_pskip=0 / chroma_qp_offset=-2 / threads=12 / sliced_threads=0 / nr=0 / decimate=1 / interlaced=0 / bluray_compat=0 / constrained_intra=0 / bframes=6 / b_pyramid=2 / b_adapt=2 / b_bias=0 / direct=3 / weightb=1 / open_gop=0 / weightp=2 / keyint=250 / keyint_min=23 / scenecut=40 / intra_refresh=0 / rc_lookahead=40 / rc=2pass / mbtree=0 / bitrate=10024 / ratetol=2.0 / qcomp=0.70 / qpmin=0 / qpmax=69 / qpstep=4 / cplxblur=20.0 / qblur=0.5 / vbv_maxrate=40000 / vbv_bufsize=30000 / nal_hrd=none / ip_ratio=1.40 / pb_ratio=1.30 / aq=2:1.00
Language : English
Default : Yes
Forced : Yes

Audio #1
ID : 2
Format : DTS
Format/Info : Digital Theater Systems
Codec ID : A_DTS
Duration : 1h 38mn
Bit rate mode : Constant
Bit rate : 755 Kbps
Channel(s) : 6 channels
Channel positions : Front: L C R, Side: L R, LFE
Sampling rate : 48.0 KHz
Bit depth : 24 bits
Compression mode : Lossy
Stream size : 531 MiB (6%)
Title : DTS 5.1 @ 768 kbps - Dub, BD EUR
Language : Russian
Default : Yes
Forced : Yes

Audio #2
ID : 3
Format : DTS
Format/Info : Digital Theater Systems
Codec ID : A_DTS
Duration : 1h 38mn
Bit rate mode : Constant
Bit rate : 1 510 Kbps
Channel(s) : 6 channels
Channel positions : Front: L C R, Side: L R, LFE
Sampling
11f1050fc710bf2bad2ccbfe4e4ba7ff0cc57bb5Хичкок / Hitchcock (Саша Джерваси, Драма, история, биография, 2012) [BDRip 1080p, Дубляж, Оригинал (английский), Sub] Хичкок / Hitchcock (Саша Джерваси, Драма, история, биография, 2012) [BDRip 1080p, Дубляж, Оригинал (английский), Sub] " />

Аплоадер: Админ, дата: 30-03-2013, 01:34, торрент скачан: 359 раз

Понравилась раздача? Посмотрите эти:
  • Хичкок / Hitchcock (Саша Джерваси, Драма, история, биография, 2012) [BDRip, ...
  • Хичкок / Hitchcock (Саша Джерваси, Драма, история, биография, 2012) [BDRip- ...
  • Хичкок / Hitchcock (Саша Джерваси, Драма, история, биография, 2012) [BDRip, ...
  • Хичкок / Hitchcock (Саша Джерваси, Драма, история, биография, 2012) [BDRip, ...
  • Хичкок / Hitchcock (Саша Джерваси, драма, история, биография, 2012) [DVD9 R ...
  • Хичкок / Hitchcock (Саша Джерваси, Драма, история, биография, 2012) [BDRip- ...
  • Хичкок / Hitchcock (Саша Джерваси, драма, история, биография, 2012) [320x24 ...
  • Хичкок / Hitchcock (Саша Джерваси, драма, история, биография, 2012) [BDRip- ...
  • Хичкок / Hitchcock (Саша Джерваси, Драма, история, биография, 2012) [BDRip ...
  • Хичкок / Hitchcock (Саша Джерваси, драма, история, биография, 2012) [Blu-Ra ...
  • Мастер / The Master (Пол Томас Андерсон, Драма, 2012) [BDRip 1080p, Дубляж, ...
  • Жизнь Пи / Life Of Pi (Энг Ли, Драма, приключения, 2012) [BDRip 1080p, Проф ...
  • Толстяк на ринге / Here Comes the Boom (Фрэнк Корачи, Боевик, комедия, 201 ...
  • Анна Каренина / Anna Karenina (Джо Райт, Драма, мелодрама, 2012) [BDRip 108 ...
  • Двойник дьявола / The Devils Double (Ли Тамахори, драма, биография, 2011) [ ...
  • Красные огни / Red Lights (Родриго Кортес, Ужасы, триллер, драма, 2012) [BD ...
  • Супер Майк / Magic Mike (Стивен Содерберг, Драма, комедия, 2012) [BDRip 108 ...
  • На Дороге / On The Road (Уолтер Саллес, Драма, приключения, 2012) [BDRip 10 ...
  • Эволюция Борна / The Bourne Legacy (Тони Гилрой, Боевик, триллер, детектив, ...
  • [Трейлер] Хичкок / Hitchcock (Саша Джерваси, драма, биография) [HDRip, Проф ...
  • Информация
    Посетители, находящиеся в группе Гости, не могут оставлять комментарии к данной публикации.