вход на сайт

Имя пользователя :
Пароль :

Восстановление пароля Регистрация
Возвращение героя / The Last Stand (Ким Чжи-ун, Боевик, триллер, криминал, 2013) [BDRip 1080p, Дубляж, Оригинал (английский), Sub]
Рейтинг:
(голосов: 1)



[img]{THEME}/images/logopost.png[/img]



Возвращение героя / The Last Stand
«Спокойная жизнь не для него»

Год выпуска: 2013
Страна: США
Производство: Di Bonaventura Pictures
Жанр: Боевик, триллер, криминал

Режиссёр: Ким Чжи Ун
В ролях: Арнольд Шварценеггер, Форест Уитакер, Джонни Ноксвил, Родриго Санторо, Джейми Александр, Луис Гузман, Эдуардо Норьега, Петер Стормаре, Зэк Гилфорд, Генезис Родригез

Перевод: Дубляж, Оригинал (английский)
Субтитры:русские

Описание: Самая опасная и жестокая банда наркоторговцев сбегает из-под конвоя ФБР. Прихватив заложника, они мчатся к мексиканской границе на бронированной, оснащенной первоклассным вооружением машине. У них на пути стоит лишь тихий городок, за порядком в котором следит шериф Оуенс. Когда-то он был одним из лучших полицейских Лос-Анджелеса, теперь он вернулся.



Качество: BDRip 1080p | Сэмпл
Продолжительность: 01:47:03 час.


Формат: MKV
Видео кодек: x264
Аудио кодек: DTS
Видео: 1920x804 (2,40:1), 24.000 fps, x264 ~9000 kbps avg, 0.243 bit/pixel
Аудио#1: 48 kHz/16-bit, DTS, 3/2 (L,C,R,l,r) + LFE ch, ~1510.00 kbps avg - (Дубляж)
Аудио#2: 48 kHz/16-bit, DTS, 3/2 (L,C,R,l,r) + LFE ch, ~1510.00 kbps avg - (Оригинал)

Дата премьеры (мир): 12 января 2013
Дата премьеры (РФ): 21 февраля 2013, «UPI», «Премиум Фильм»

MediaInfo ▼
Общее
Уникальный идентификатор : 231071081431419645696458221489275881381 (0xADD6ABE77E843DCFABCCD7CAA4BD47A5)
Полное имя : D:Mои раздачиVozvrashenie.geroya.2013.BDRip.(1080p)_kaspr.mkv
Формат : Matroska
Версия формата : Version 2
Размер файла : 8,99 Гбайт
Продолжительность : 1 ч. 47 м.
Общий поток : 12,0 Мбит/сек
Название фильма : Возвращение героя (Rip by kaspr)
Дата кодирования : UTC 2013-04-22 06:27:43
Программа кодирования : mkvmerge v5.7.0 (The Whirlwind) built on Aug 7 2012 14:11:40
Библиотека кодирования : libebml v1.2.3 + libmatroska v1.3.0

Видео
Идентификатор : 1
Формат : AVC
Формат/Информация : Advanced Video Codec
Профиль формата : [email protected]
Параметр CABAC формата : Да
Параметр ReFrames формата : 5 кадров
Идентификатор кодека : V_MPEG4/ISO/AVC
Продолжительность : 1 ч. 47 м.
Битрейт : 9000 Кбит/сек
Ширина : 1920 пикселей
Высота : 804 пикселя
Соотношение сторон : 2,40:1
Режим частоты кадров : Постоянный
Частота кадров : 24,000 кадра/сек
Цветовое пространство : YUV
Субдискретизация насыщенности : 4:2:0
Битовая глубина : 8 бит
Тип развёртки : Прогрессивная
Бит/(Пиксели*Кадры) : 0.243
Размер потока : 6,55 Гбайт (73%)
Заголовок : Возвращение героя (Rip by kaspr)
Библиотека кодирования : x264 core 130 r2273 b3065e6
Настройки программы : cabac=1 / ref=5 / deblock=1:-3:-3 / analyse=0x3:0x133 / me=umh / subme=11 / psy=1 / psy_rd=1.00:0.10 / mixed_ref=1 / me_range=32 / chroma_me=1 / trellis=2 / 8x8dct=1 / cqm=0 / deadzone=21,11 / fast_pskip=0 / chroma_qp_offset=-3 / threads=12 / lookahead_threads=1 / sliced_threads=0 / nr=0 / decimate=0 / interlaced=0 / bluray_compat=0 / constrained_intra=0 / bframes=6 / b_pyramid=2 / b_adapt=2 / b_bias=0 / direct=3 / weightb=1 / open_gop=0 / weightp=2 / keyint=240 / keyint_min=22 / scenecut=40 / intra_refresh=0 / rc_lookahead=40 / rc=2pass / mbtree=1 / bitrate=9000 / ratetol=1.0 / qcomp=0.60 / qpmin=0 / qpmax=69 / qpstep=4 / cplxblur=20.0 / qblur=0.5 / ip_ratio=1.40 / aq=1:1.00
Default : Да
Forced : Нет

Аудио #1
Идентификатор : 2
Формат : DTS
Формат/Информация : Digital Theater Systems
Идентификатор кодека : A_DTS
Продолжительность : 1 ч. 47 м.
Вид битрейта : Постоянный
Битрейт : 1510 Кбит/сек
Каналы : 6 каналов
Расположение каналов : Front: L C R, Side: L R, LFE
Частота : 48,0 КГц
Битовая глубина : 16 бит
Метод сжатия : С потерями
Размер потока : 1,13 Гбайт (13%)
Заголовок : Дубляж
Язык : Russian
Default : Да
Forced : Да

Аудио #2
Идентификатор : 3
Формат : DTS
Формат/Информация : Digital Theater Systems
Идентификатор кодека : A_DTS
Продолжительность : 1 ч. 47 м.
Вид битрейта : Постоянный
Битрейт : 1510 Кбит/сек
Каналы : 6 каналов
Расположение каналов : Front: L C R,
fd2fe165bc1b5ee8b9c1883be946b6fe50ce3884Возвращение героя / The Last Stand (Ким Чжи-ун, Боевик, триллер, криминал, 2013) [BDRip 1080p, Дубляж, Оригинал (английский), Sub] Возвращение героя / The Last Stand (Ким Чжи-ун, Боевик, триллер, криминал, 2013) [BDRip 1080p, Дубляж, Оригинал (английский), Sub] " />

Аплоадер: Админ, дата: 22-04-2013, 15:03, торрент скачан: 359 раз

Понравилась раздача? Посмотрите эти:
  • Возвращение героя / The Last Stand (Ким Чжи Ун, Боевик, триллер, криминал, ...
  • Возвращение героя / The Last Stand (Ким Чжи Ун, Боевик, триллер, криминал , ...
  • Возвращение героя / The Last Stand (Ким Чжи-ун, Боевик, триллер, криминал, ...
  • Возвращение героя / The Last Stand (Ким Чжи Ун, боевик, триллер, криминал, ...
  • Возвращение героя / The Last Stand (Ким Чжи Ун, боевик, триллер, криминал, ...
  • Возвращение героя / The Last Stand (Ким Чжи Ун, боевик, триллер, криминал, ...
  • Возвращение героя / The Last Stand (Ким Чжи-ун, Боевик, триллер, криминал, ...
  • Возвращение героя / The Last Stand (Ким Чжи-ун, Боевик, триллер, криминал, ...
  • Возвращение героя / The Last Stand (Ким Чжи-ун, Боевик, триллер, криминал, ...
  • Возвращение героя / The Last Stand (Ким Чжи-ун, Боевик, триллер, криминал, ...
  • Возвращение героя / The Last Stand (Ким Чжи-ун, Боевик, триллер, криминал, ...
  • Возвращение героя / The Last Stand (Ким Чжи-ун, Боевик, триллер, криминал, ...
  • Возвращение героя / The Last Stand (Ким Чжи Ун, Боевик, триллер, 2013) [BDR ...
  • Возвращение героя / The Last Stand (Ким Чжи Ун, боевик, триллер, криминал, ...
  • Возвращение героя / The Last Stand (Ким Чжи-ун, Боевик, триллер, криминал, ...
  • Возвращение героя / The Last Stand (Ким Чжи Ун, боевик, триллер, криминал, ...
  • [iPhone, iPod] Возвращение героя / The Last Stand (Ким Чжи Ун, боевик, трил ...
  • Возвращение героя / The Last Stand (Ким Чжи Ун, боевик, триллер, криминал, ...
  • Возвращение героя / The Last Stand (Ким Чжи Ун, боевик, триллер, криминал, ...
  • [Трейлер] Возвращение героя / The Last Stand (Ким Чжи Ун, боевик, триллер, ...
  • Информация
    Посетители, находящиеся в группе Гости, не могут оставлять комментарии к данной публикации.