вход на сайт

Имя пользователя :
Пароль :

Восстановление пароля Регистрация
Переполох на районе / Les Kaïra (Франк Гастамбиде, комедия, 2012) [BDRip 1080p, Профессиональный (полное дублирование), Оригинал (Французский)]
Рейтинг:
(голосов: 1)



[img]{THEME}/images/logopost.png[/img]



• Переполох на районе / Les Kaïra •
-

Год выпуска: 2012
Страна: Франция
Производство: Canal+ [fr], Ciné, Cofimage 23, Gaumont, Mandarin Films, Palatine Étoile 9, Save Ferris Entertainment, Sofica Manon 2
Жанр: Комедия

Режиссёр: Франк Гастамбиде
В ролях: Меди Садун, Франк Гастамбиде, Джиб, Алис Белаиди, Пом Клементьефф, Рамзи Бедиа, Хаким Сид, Исмаэль Си Саване, Аннабель Лангронн, Сисси Дюпарк

Перевод: Профессиональный (полное дублирование), Оригинал (Французский)
Субтитры: Отсутствуют

Описание:
Трое непутевых жителей одного из бедных кварталов Парижа попадают в историю и оказываются в должниках у местного авторитете Ворнера. Срочно нужны бабосы и друзья решают сняться в порнофильме. Лучше бы они этого не делали! Умопомрачительная комедия!


Дата премьеры (мир) - 10 июля 2012
Дата премьеры (РФ) - 14 марта 2013, «Арена»


Качество: BDRip 1080p| Сэмпл
Продолжительность: 01:35:26

Формат: MKV
Видео кодек: H.264
Аудио кодек: DTS| AC3
Видео: 1980x808 (2,40:1), 24,000 fps, x264 ~8100 Kbps avg, 0.218 bit/pixel
Аудио#1: 48 kHz, AC3 Dolby Digital, 3/2 (L,C,R,l,r) + LFE ch, ~448 kbps avg| Дубляж
Аудио#2: 48 kHz, DTS, 3/2 (L,C,R,l,r) + LFE ch, ~1510.00 kbps avg| Оригинал


MediaInfo ▼TextОбщее
Уникальный идентификатор : 171012297585181389772593476132860464030 (0x80A7C53E0812FF57A43FEEF351820B9E)
Полное имя : D:Торрент раздачаPerepoloh.na.rayone.2012.x264.BDRip.mkv
Формат : Matroska
Версия формата : Version 2
Размер файла : 6,86 Гбайт
Продолжительность : 1 ч. 37 м.
Общий поток : 10,1 Мбит/сек
Название фильма : Perepoloh.na.rayone
Дата кодирования : UTC 2013-04-27 20:23:09
Программа кодирования : mkvmerge v5.0.1 (Es ist Sommer) built on Oct 9 2011 11:55:43
Библиотека кодирования : libebml v1.2.2 + libmatroska v1.3.0

Видео
Идентификатор : 1
Формат : AVC
Формат/Информация : Advanced Video Codec
Профиль формата : [email protected]
Параметр CABAC формата : Да
Параметр ReFrames формата : 5 кадров
Режим смешивания : Header stripping
Идентификатор кодека : V_MPEG4/ISO/AVC
Продолжительность : 1 ч. 37 м.
Битрейт : 8100 Кбит/сек
Ширина : 1920 пикселей
Высота : 808 пикселей
Соотношение сторон : 2,40:1
Соотношение сторон в оригинале : 2,40:1
Режим частоты кадров : Постоянный
Частота кадров : 24,000 кадра/сек
Цветовое пространство : YUV
Субдискретизация насыщенности : 4:2:0
Битовая глубина : 8 бит
Тип развёртки : Прогрессивная
Бит/(Пиксели*Кадры) : 0.218
Размер потока : 5,39 Гбайт (79%)
Библиотека кодирования : x264 core 128 r2216 198a7ea
Настройки программы : cabac=1 / ref=5 / deblock=1:0:0 / analyse=0x3:0x113 / me=umh / subme=8 / psy=1 / psy_rd=1.00:0.00 / mixed_ref=1 / me_range=16 / chroma_me=1 / trellis=1 / 8x8dct=1 / cqm=0 / deadzone=21,11 / fast_pskip=1 / chroma_qp_offset=-2 / threads=12 / lookahead_threads=2 / sliced_threads=0 / nr=0 / decimate=1 / interlaced=0 / bluray_compat=0 / constrained_intra=0 / bframes=3 / b_pyramid=2 / b_adapt=2 / b_bias=0 / direct=3 / weightb=1 / open_gop=0 / weightp=2 / keyint=240 / keyint_min=24 / scenecut=40 / intra_refresh=0 / rc_lookahead=50 / rc=2pass / mbtree=1 / bitrate=8100 / ratetol=1.0 / qcomp=0.60 / qpmin=0 / qpmax=69 / qpstep=4 / cplxblur=20.0 / qblur=0.5 / ip_ratio=1.40 / aq=1:1.00
Default : Да
Forced : Нет

Аудио #1
Идентификатор : 2
Формат : DTS
Формат/Информация : Digital Theater Systems
Режим : 16
Параметр Endianness формата : Big
Режим смешивания : Header stripping
Идентификатор кодека : A_DTS
Продолжительность : 1 ч. 37 м.
Вид битрейта : Постоянный
Битрейт : 1509 Кбит/сек
Каналы : 6 каналов
Расположение каналов : Front: L C R, Side: L R, LFE
Частота : 48,0 КГц
Битовая глубина : 24 бит
Метод сжатия : С потерями
Размер потока : 1,03 Гбайт (15%)
Заголовок : French DTS
Язык : French
Default : Да
Forced : Нет

Аудио #2
Идентификатор : 3
Формат : AC-3
Формат/Информация : Audio Coding 3
Расширение режима : CM (complete main)
Параметр Endianness формата : Big
Идентификатор кодека : A_AC3
Продолжительность : 1 ч. 37 м.
3441a5dab9e1fd4f1f607015ed0fe8837baa3951Переполох на районе / Les Kaïra (Франк Гастамбиде, комедия, 2012) [BDRip 1080p, Профессиональный (полное дублирование), Оригинал (Французский)] Переполох на районе / Les Kaïra (Франк Гастамбиде, комедия, 2012) [BDRip 1080p, Профессиональный (полное дублирование), Оригинал (Французский)] " />

Аплоадер: Админ, дата: 7-05-2013, 21:16, торрент скачан: 359 раз

Понравилась раздача? Посмотрите эти:
  • Одноклассники 2 / Grown Ups 2 (Деннис Дуган, Комедия, 2013) [BDRip-AVC, Про ...
  • Заклятие / The Conjuring (Джеймс Ван, ужасы, триллер, 2013) [BDRip 1080p, Д ...
  • Исходный код / Source Code (Дункан Джонс, фантастика, боевик, триллер, драм ...
  • Фантомы / Shutter (Масаюки Очиай, ужасы, триллер, детектив, 2008) [BDRip-AV ...
  • Поймай толстуху, если сможешь [Театральная версия] / Identity Thief [Theatr ...
  • Ворон / The Raven (Джеймс МакТиг, Триллер, детектив, 2012) [BDRip 1080p, Ду ...
  • Даю год / I Give It a Year (Дэн Мазер, мелодрама, комедия, 2012) [BDRip-AVC ...
  • Переполох на районе / Les Kaira (Франк Гастамбиде, комедия, 2012) [HDRip-AV ...
  • Огонь Кристиана Лубутена 3D / FEU: Crazy Horse Paris (Бруно Халлин, Докумен ...
  • Переполох на районе / Les Kaira (Франк Гастамбиде, комедия, 2012) [HDRip, П ...
  • Переполох на районе / Les Kaira (Франк Гастамбиде, Комедия, 2012) [BDRip 72 ...
  • Переполох на районе / Les Kaïra (Франк Гастамбиде, комедия, 2012) [HDRip, П ...
  • Переполох на районе / Les Kaïra (Франк Гастамбиде, комедия, 2012) [HDRip-AV ...
  • Магазинчик самоубийств 3D / Le magasin des suicides (Патрис Леконт, мультфи ...
  • Суррогат / The Sessions (Бен Луин, Драма, 2012) [BDRip-AVC, Профессиональны ...
  • Переростки / The Inbetweeners (Бен Палмер / Ben Palmer, комедия, 2011) [BDR ...
  • Схватка / The Grey (Джо Карнахан, боевик, триллер, драма, приключения, 2012 ...
  • Стыд / Shame (Стив МакКуин, драма, 2011) [BDRip 1080p, полное дублирование, ...
  • Лето. Одноклассники. Любовь / LOL (Лиза Азуэлос, Драма, мелодрама, комедия, ...
  • Так себе каникулы / Old Dogs (Уолт Бекер, комедия, 2009) [BDRip 1080p, Проф ...
  • Информация
    Посетители, находящиеся в группе Гости, не могут оставлять комментарии к данной публикации.