вход на сайт

Имя пользователя :
Пароль :

Восстановление пароля Регистрация
Отверженные / Les Miserables (Том Хупер, Мюзикл, драма, мелодрама, 2012) [BDRip 720p, Дубляж, Оригинал (английский), Commentary, Sub]
Рейтинг:
(голосов: 1)



[img]{THEME}/images/logopost.png[/img]



Отверженные / Les Miserables
«Борьба. Мечта. Надежда. Любовь.»

Год выпуска: 2012
Страна: США, Великобритания
Производство: Cameron Mackintosh Ltd., Relativity Media, Universal Pictures, Working Title Films
Жанр: Мюзикл, драма, мелодрама

Режиссёр: Том Хупер
В ролях: Аманда Сэйфрид, Энн Хэтэуэй, Хью Джекман, Хелена Бонем Картер, Рассел Кроу, Саша Барон Коэн, Аарон Твейт, Эдди Редмэйн

Перевод: Дубляж, Оригинал (английский), Commentary
Субтитры: русские (Songs, R5, notabenoid), английские (Full, SDH)

Описание: Действие развивается в начале XIX столетия. Беглый каторжник Жан Вальжан, приговоренный к тюремному заключению, вынужден долгие годы скрываться от жестокого правосудия. Инспектор парижской полиции Жавер считает его поимку делом всей своей жизни. После смерти Фантины — женщины, за судьбу которой Жан Вальжан считал себя в ответе, — единственным близким ему человеком остается ее дочь Козетта. Ради счастья девушки Жан готов на все.

Релиз от:Качество: BDRip 720p | Сэмпл
Продолжительность: 02:37:54 час.

Формат: MKV
Видео кодек: x264
Аудио кодек: AC3, DTS
Видео: 1280x694 (1.85:1), 23,976 fps, x264 ~8 295 kbps avg, 0.389 bit/pixel
Аудио#1: 48 kHz, DTS, 3/2 (L,C,R,l,r) + LFE ch, ~768.00 kbps avg - (Дубляж)
Аудио#2: 48 kHz, DTS, 3/2 (L,C,R,l,r) + LFE ch, ~1510.00 kbps avg - (Оригинал)
Аудио#3: 48 kHz, AC3 Dolby Digital, 2/0 (L,R) ch, ~192.00 kbps avg - (Commentary)

Дата премьеры (мир): 5 декабря 2012
Дата премьеры (РФ): 7 февраля 2013, «UPI»

MediaInfo ▼
General
Unique ID : 200452651703935501524281343186116568737 (0x96CDC6C46F141329913F381B4B4466A1)
Complete name : D:ФильмыOtverzhennye.2012.D.BDRip.720p.IRONCLUB.mkv
Format : Matroska
Format version : Version 2
File size : 12.1 GiB
Duration : 2h 37mn
Overall bit rate : 11.0 Mbps
Movie name : Les Miserables (2012) - IRONCLUB
Encoded date : UTC 2013-04-18 10:06:36
Writing application : mkvmerge v5.7.0 (The Whirlwind) built on Jul 29 2012 15:12:35
Writing library : libebml v1.2.3 + libmatroska v1.3.0

Video
ID : 1
Format : AVC
Format/Info : Advanced Video Codec
Format profile : [email protected]
Format settings, CABAC : Yes
Format settings, ReFrames : 9 frames
Codec ID : V_MPEG4/ISO/AVC
Duration : 2h 37mn
Bit rate : 8 295 Kbps
Width : 1 280 pixels
Height : 694 pixels
Display aspect ratio : 1.85:1
Frame rate mode : Constant
Frame rate : 23.976 fps
Color space : YUV
Chroma subsampling : 4:2:0
Bit depth : 8 bits
Scan type : Progressive
Bits/(Pixel*Frame) : 0.389
Stream size : 9.15 GiB (76%)
Title : Les.Miserables.2012.720p.BluRay.DTS.x264-ThD
Writing library : x264 core 130 r2273kMod b3065e6
Encoding settings : cabac=1 / ref=9 / deblock=1:-3:-3 / analyse=0x3:0x133 / me=umh / subme=9 / psy=1 / fade_compensate=0.00 / psy_rd=1.10:0.00 / mixed_ref=1 / me_range=64 / chroma_me=1 / trellis=2 / 8x8dct=1 / cqm=0 / deadzone=21,11 / fast_pskip=0 / chroma_qp_offset=-2 / threads=16 / lookahead_threads=2 / sliced_threads=0 / nr=0 / decimate=0 / interlaced=0 / bluray_compat=0 / constrained_intra=0 / bframes=9 / b_pyramid=2 / b_adapt=2 / b_bias=0 / direct=3 / weightb=1 / open_gop=0 / weightp=2 / keyint=250 / keyint_min=23 / scenecut=40 / intra_refresh=0 / rc=crf / mbtree=0 / crf=17.0000 / qcomp=0.85 / qpmin=0 / qpmax=69 / qpstep=4 / ip_ratio=1.25 / pb_ratio=1.20 / aq=2:0.80
Language : English
Default : Yes
Forced : Yes

Audio #1
ID : 2
Format : DTS
Format/Info : Digital Theater Systems
Mode : 16
Format settings, Endianness : Big
Codec ID : A_DTS
Duration : 2h 37mn
Bit rate mode : Constant
Bit rate : 768 Kbps
Channel(s) : 6 channels
Channel positions : Front: L C R, Side: L R, LFE
Sampling rate : 48.0 KHz
Bit depth : 24 bits
Compression mode : Lossy
Stream size : 867 MiB (7%)
Title : DTS 5.1 @ 768 kbps - Dub, Blu-Ray
Language : Russian
Default : Yes
Forced : No

Audio #2
ID : 3
Format : DTS
Format/Info : Digital Theater Systems
Mode : 16
Format
d13577797264bd08c54d1e992ca73eb6516d25ceОтверженные / Les Miserables (Том Хупер, Мюзикл, драма, мелодрама, 2012) [BDRip 720p, Дубляж, Оригинал (английский), Commentary, Sub] Отверженные / Les Miserables (Том Хупер, Мюзикл, драма, мелодрама, 2012) [BDRip 720p, Дубляж, Оригинал (английский), Commentary, Sub] " />

Аплоадер: Админ, дата: 6-05-2013, 20:50, торрент скачан: 359 раз

Понравилась раздача? Посмотрите эти:
  • Отверженные / Les Miserables (Том Хупер, Мюзикл, драма, мелодрама, 2012) [H ...
  • Отверженные / Les Miserables (режиссёр, Мюзикл, драма, мелодрама, 2012) [BD ...
  • Паркер / Parker (Тейлор Хэкфорд, Боевик, триллер, криминал, 2013) [BDRip 7 ...
  • Отверженные / Les Miserables (Том Хупер, Мюзикл, драма, мелодрама, 2012) [B ...
  • Отверженные / Les Miserables (Том Хупер, Мюзикл, драма, мелодрама, 2012) [B ...
  • Отверженные / Les Miserables (Том Хупер, Мюзикл, драма, мелодрама, 2012) [B ...
  • Отверженные / Les Miserables (Том Хупер, мюзикл, драма, мелодрама, 2012) [B ...
  • Отверженные / Les Miserables (Том Хупер, мюзикл, драма, мелодрама , 2012) [ ...
  • Отверженные / Les Miserables (Том Хупер, Мюзикл, драма, 2012) [BDRip 720p, ...
  • Отверженные / Les Miserables (Том Хупер, Мюзикл, драма, мелодрама, 2012) [B ...
  • Отверженные / Les Miserables (Том Хупер, Мюзикл, драма, мелодрама, 2012) [B ...
  • Отверженные / Les Miserables (Том Хупер, мюзикл, драма, мелодрама, 2012) [H ...
  • Отверженные / Les Miserables (Том Хупер, мюзикл, драма, 2012) [HDRip, Дубли ...
  • Отверженные / Les Miserables (Том Хупер, мюзикл, драма, 2012) [HDRip, Дубли ...
  • Отверженные / Les Miserables (Том Хупер, мюзикл, драма, мелодрама, 2012) [B ...
  • Отверженные / Les Miserables (Том Хупер, мюзикл, драма, мелодрама , 2012) [ ...
  • Анна Каренина / Anna Karenina (Джо Райт, Драма, мелодрама, 2012) [BDRip 720 ...
  • Хорошо быть тихоней / The Perks of Being a Wallflower (Стивен Чбоски, Драма ...
  • Рок на века / Rock of Ages (Адам Шенкман, Мюзикл, драма, мелодрама, комедия ...
  • Мадагаскар 3 / Madagascar 3: Europes Most Wanted (Эрик Дарнелл, Том МакГрат ...
  • Третий лишний / Ted (Сет МакФарлейн, Фэнтези, комедия, 2012) [BDRip 720p, Д ...
  • Странная жизнь Тимоти Грина / The Odd Life of Timothy Green (Питер Хеджес, ...
  • Эволюция Борна / The Bourne Legacy (Тони Гилрой, Боевик, триллер, детектив, ...
  • [Трейлер] Отверженные / Les Misérables (Том Хупер, мюзикл, драма, мелодрама ...
  • [Тизер #1] Отверженные / Les Misérables (Том Хупер, мюзикл, драма) [HDRip 7 ...
  • Информация
    Посетители, находящиеся в группе Гости, не могут оставлять комментарии к данной публикации.