вход на сайт

Имя пользователя :
Пароль :

Восстановление пароля Регистрация
Добро пожаловать в капкан / Welcome to the Punch (Эрен Криви, боевик, триллер, криминал, приключения, 2013) [BDRip 720p, Авторский (одноголосый закадровый) [А. Дольский] + Оригинал (английский) + Subs]
Рейтинг:
(голосов: 1)



[img]{THEME}/images/logopost.png[/img]



Добро пожаловать в капкан / Welcome to the Punch
Год выпуска: 2013
Страна: Великобритания, США
Производство:Automatik Entertainment, Between The Eyes, Scott Free Productions
Жанр:боевик, триллер, криминал, приключения
Режиссёр: Эрен Криви
В ролях: Джеймс МакЭвой, Марк Стронг, Андреа Райзборо, Дэвид Моррисси, Питер Муллан, Джейсон Флеминг, Элайес Габел, Дэниэл Калуя, Дэниэл Мейс, Джонни Харрисел Дэниэл Калуя Дэниэл Мейс Джонни Харрис

Перевод: Авторский (одноголосый закадровый) [А. Дольский], Оригинал (английский)
Субтитры: английские (softsub)

Описание: Бывший преступник Джейкоб Стернбуд вынужден вернуться в Лондон из своего убежища, когда его сын вовлечен в ограбление пошедшее не так. У детектива Макса Левински появляется шанс поймать человека, которому всегда удавалось уйти. Соперники снова меряются силами, но они сталкиваются с более глубоким преступным заговором, с которым вынуждены бороться, чтобы выжить.Дата премьеры (мир): 24 февраля 2013
Дата премьеры (РФ): 18 апреля 2013, «West»

Качество: BDRip 720p
Продолжительность: 01:39:46 час.

Формат: MKV
Видео кодек: X264
Аудио кодек: AC3
Видео: 1280x720 (16:9), 23.976 fps, x264 ~4210 kbps avg, 0.191 bit/pixel
Аудио:
Аудио 1: 48 kHz, AC3 Dolby Digital, 3/2 (L,C,R,l,r) + LFE ch, ~448 kbps [А. Дольский]
Аудио 2: 48 kHz, AC3 Dolby Digital, 3/2 (L,C,R,l,r) + LFE ch, ~384 kbps [eng]

Сэмпл
"MediaInfo" ▼
Complete name : Welcome.To.The.Punch.2013.BluRay.720p.DTS.x264-CHD.mkv
Format : Matroska
Format version : Version 4 / Version 2
File size : 3.83 GiB
Duration : 1h 46mn
Overall bit rate : 5 144 Kbps
Movie name : Welcome To The Punch (2013)
Encoded date : UTC 2013-08-17 08:45:19
Writing application : mkvmerge v6.3.0 (You cant stop me!) built on Jun 28 2013 20:09:41
Writing library : libebml v1.3.0 + libmatroska v1.4.0

Video
ID : 1
Format : AVC
Format/Info : Advanced Video Codec
Format profile : [email protected]
Format settings, CABAC : Yes
Format settings, ReFrames : 8 frames
Codec ID : V_MPEG4/ISO/AVC
Duration : 1h 46mn
Bit rate : 4 210 Kbps
Nominal bit rate : 4 645 Kbps
Width : 1 280 pixels
Height : 720 pixels
Display aspect ratio : 16:9
Frame rate mode : Constant
Frame rate : 23.976 fps
Color space : YUV
Chroma subsampling : 4:2:0
Bit depth : 8 bits
Scan type : Progressive
Bits/(Pixel*Frame) : 0.191
Stream size : 3.14 GiB (82%)
Title : Welcome To The Punch (2013)
Writing library : x264 core 125 r2208 d9d2288
Encoding settings : cabac=1 / ref=8 / deblock=1:-3:-3 / analyse=0x3:0x113 / me=umh / subme=10 / psy=1 / psy_rd=1.00:0.05 / mixed_ref=1 / me_range=32 / chroma_me=1 / trellis=2 / 8x8dct=1 / cqm=0 / deadzone=21,11 / fast_pskip=0 / chroma_qp_offset=-2 / threads=8 / lookahead_threads=1 / sliced_threads=0 / nr=0 / decimate=1 / interlaced=0 / bluray_compat=0 / constrained_intra=0 / bframes=4 / b_pyramid=2 / b_adapt=2 / b_bias=0 / direct=3 / weightb=1 / open_gop=0 / weightp=2 / keyint=250 / keyint_min=23 / scenecut=40 / intra_refresh=0 / rc=2pass / mbtree=0 / bitrate=4645 / ratetol=1.0 / qcomp=0.70 / qpmin=0 / qpmax=69 / qpstep=4 / cplxblur=20.0 / qblur=0.5 / ip_ratio=1.40 / pb_ratio=1.30 / aq=2:1.00
Language : English
Default : Yes
Forced : No

Audio #1
ID : 2
Format : AC-3
Format/Info : Audio Coding 3
Mode extension : CM (complete main)
Format settings, Endianness : Big
Codec ID : A_AC3
Duration : 1h 46mn
Bit rate mode : Constant
Bit rate : 448 Kbps
Channel count : 6 channels
Channel positions : Front: L C R, Side: L R, LFE
Sampling rate : 48.0 KHz
Bit depth : 16 bits
Compression mode : Lossy
Stream size : 342 MiB (9%)
Title : AC3, 448 kbps (6 ch)
Language : Russian
Default : Yes
Forced : No

Audio #2
ID : 3
Format : AC-3
Format/Info : Audio Coding 3
Mode extension : CM (complete main)
Format settings, Endianness : Big
Codec ID : A_AC3
Duration : 1h 46mn
Bit rate mode : Constant
Bit rate : 384 Kbps
Channel count : 6 channels
Channel positions : Front: L C R, Side: L R, LFE
Sampling rate : 48.
938fa7e7f868cf01ea49e7d0a909f8576da143a4Добро пожаловать в капкан / Welcome to the Punch (Эрен Криви, боевик, триллер, криминал, приключения, 2013) [BDRip 720p, Авторский (одноголосый закадровый) [А. Дольский] + Оригинал (английский) + Subs] Добро пожаловать в капкан / Welcome to the Punch (Эрен Криви, боевик, триллер, криминал, приключения, 2013) [BDRip 720p, Авторский (одноголосый закадровый) [А. Дольский] + Оригинал (английский) + Subs] " />

Аплоадер: Админ, дата: 18-08-2013, 17:43, торрент скачан: 359 раз

Понравилась раздача? Посмотрите эти:
  • Два ствола / 2 Guns (Бальтасар Кормакур, боевик, триллер, драма, комедия, к ...
  • Сезон убийц / Killing Season (Марк Стивен Джонсон, триллер, драма, боевик, ...
  • Добро пожаловать в капкан / Welcome to the Punch (Эрен Криви, боевик, трилл ...
  • Погнали! / Getaway (Кортни Соломон, боевик, криминал, 2013) [BDRip 720p, Пр ...
  • Ледяной / The Iceman (Ариэль Вромен, драма, криминал, биография, 2013) [BDR ...
  • Добро пожаловать в капкан / Welcome To The Punch (Эрен Криви, боевик, трилл ...
  • Паркер / Parker (Тейлор Хэкфорд, Боевик, триллер, криминал, 2013) [BDRip 7 ...
  • Добро пожаловать в капкан / Welcome To The Punch (Эрен Криви, боевик, трилл ...
  • Обливион / Oblivion (Джозеф Косински, фантастика, боевик, триллер, приключе ...
  • Обливион / Oblivion (Джозеф Косински, Фантастика, боевик, триллер, приключе ...
  • Кровью и потом: Анаболики / Pain & Gain (Майкл Бэй, криминал, комедия, трил ...
  • Добро пожаловать в капкан / Welcome To The Punch (Эрен Криви, боевик, трилл ...
  • Добро пожаловать в капкан / Welcome To The Punch (Эрен Криви, боевик, трилл ...
  • [Трейлер] Добро пожаловать в капкан / Welcome to the Punch (Эрен Криви, бое ...
  • Честь дракона / Tom yum goong (Прачья Пинкаю, боевик, триллер, драма, крим ...
  • Черный дрозд / Deadfall (Штефан Руцовицки, Триллер, драма, криминал, 2012) ...
  • Город воров [Театральная версия] / The Town [Theatrical cut] (Бен Аффлек, т ...
  • Пираньи 3DD / Piranha 3DD (Джон Гулажер, ужасы, триллер, комедия, 2012) [BD ...
  • Цунами 3D / Bait (Кимбл Рендалл, Ужасы, боевик, триллер, 2011) [BDRip 720p ...
  • Патруль / End of Watch (Дэвид Эйр, Триллер, драма, криминал, 2012) [BDRip 7 ...
  • Информация
    Посетители, находящиеся в группе Гости, не могут оставлять комментарии к данной публикации.