вход на сайт

Имя пользователя :
Пароль :

Восстановление пароля Регистрация
Кровью и потом: Анаболики / Pain & Gain (Майкл Бэй, криминал, комедия, триллер, боевик, 2013) [BDRip 1080p, Любительский (одноголосый закадровый) [Замез], оригинал (английский), sub]
Рейтинг:
(голосов: 1)



[img]{THEME}/images/logopost.png[/img]



Кровью и потом: Анаболики / Pain & Gain
«Мечтай по-крупному»
Год выпуска: 2013
Страна: США
Производство: De Line Pictures, Paramount Pictures, Platinum Dunes
Жанр: криминал, комедия, триллер, боевик

Режиссёр: Майкл Бэй
В ролях: Марк Уолберг, Дуэйн Джонсон, Энтони Маки, Тони Шэлуб, Эд Харрис, Кен Жонг, Иоланта Кабау ван Касберген, Виорика Пинеда, Роб Кордри, Ребел Уилсон

Перевод: Любительский (одноголосый закадровый), оригинал (английский)
Озвучка: Вячеслав Замез
Субтитры: английские

Описание: Однажды тренеру по фитнесу надоело ходить в трениках. Он решил круто изменить свою судьбу и разбогатеть. Нашел двух других незадачливых качков и предложил им план похищения своего клиента-миллионера. Но если в организме мышц больше, чем мозгов, то даже самый лучший план, подсмотренный в экшен-боевике, может не сработать…




премьера (мир): 11 апреля 2013
премьера (РФ): 25 апреля 2013, «Парадиз»

Качество: BDRip 1080p
Продолжительность: 02:09:36

Формат: MKV
Видео кодек: AVC
Аудио кодек: AC3
Cвойства видео: 1920x800 (2,40:1), 23.976 fps, ~14.1 Мбит/с, 0.384 bit/pix
Свойства аудио RU: 48 kHz, AC3 Dolby Digital, 3/2 (L,C,R,l,r) + LFE ch, ~384.00 kbps avg
Свойства аудио EN: 48 kHz, AC3 Dolby Digital, 3/2 (L,C,R,l,r) + LFE ch, ~640.00 kbps avgТех. данные ▼Полное имя : D:Кровью.и.потом.Анаболики-Pain.&.Gain.(2013).BDRip.[1080p].mkv
Формат : Matroska
Версия формата : Version 2
Размер файла : 14,0 Гбайт
Продолжительность : 2 ч. 9 м.
Общий поток : 15,5 Мбит/сек
Дата кодирования : UTC 2013-08-13 17:43:57
Программа кодирования : mkvmerge v5.7.0 (The Whirlwind) built on Aug 7 2012 14:11:40
Библиотека кодирования : libebml v1.2.3 + libmatroska v1.3.0

Видео
Идентификатор : 1
Формат : AVC
Формат/Информация : Advanced Video Codec
Профиль формата : [email protected]
Параметр CABAC формата : Да
Параметр ReFrames формата : 5 кадров
Идентификатор кодека : V_MPEG4/ISO/AVC
Продолжительность : 2 ч. 9 м.
Битрейт : 14,1 Мбит/сек
Ширина : 1920 пикселей
Высота : 800 пикселей
Соотношение сторон : 2,40:1
Режим частоты кадров : Постоянный
Частота кадров : 23,976 кадра/сек
Цветовое пространство : YUV
Субдискретизация насыщенности : 4:2:0
Битовая глубина : 8 бит
Тип развёртки : Прогрессивная
Бит/(Пиксели*Кадры) : 0.384
Размер потока : 12,8 Гбайт (91%)
Библиотека кодирования : x264 core 132 r2323+704+51 d571b1c tMod [[email protected]:2:0 X86_64]
Настройки программы : cabac=1 / ref=5 / deblock=1:-3:-3 / analyse=0x3:0x133 / me=umh / subme=11 / psy=1 / fade_compensate=0.00 / psy_rd=1.10:0.00 / mixed_ref=1 / me_range=48 / chroma_me=1 / trellis=2 / 8x8dct=1 / cqm=0 / deadzone=21,11 / fast_pskip=0 / chroma_qp_offset=-2 / threads=36 / lookahead_threads=6 / sliced_threads=0 / nr=0 / decimate=0 / interlaced=0 / bluray_compat=0 / constrained_intra=0 / fgo=0 / bframes=8 / b_pyramid=2 / b_adapt=2 / b_bias=0 / direct=3 / weightb=1 / open_gop=0 / weightp=2 / keyint=240 / keyint_min=24 / scenecut=40 / intra_refresh=0 / rc=crf / mbtree=0 / crf=18.2000 / qcomp=0.70 / qpmin=0 / qpmax=69 / qpstep=4 / ip_ratio=1.15 / pb_ratio=1.15 / aq=4:0.85 / aq-sensitivity=10.00 / aq-factor=1.00:1.00:1.00 / aq2=0 / aq3=0
Язык : English
Default : Да
Forced : Нет

Аудио #1
Идентификатор : 2
Формат : AC-3
Формат/Информация : Audio Coding 3
Расширение режима : CM (complete main)
Параметр Endianness формата : Big
Идентификатор кодека : A_AC3
Продолжительность : 2 ч. 9 м.
Вид битрейта : Постоянный
Битрейт : 384 Кбит/сек
Каналы : 6 каналов
Расположение каналов : Front: L C R, Side: L R, LFE
Частота : 48,0 КГц
Битовая глубина : 16 бит
Метод сжатия : С потерями
Размер потока : 356 Мбайт (2%)
Язык : Russian
Default : Да
Forced : Нет

Аудио #2
Идентификатор : 3
Формат : AC-3
Формат/Информация : Audio Coding 3
Расширение режима : CM (complete main)
Параметр Endianness формата : Big
Идентификатор кодека : A_AC3
Продолжительность : 2 ч. 9 м.
Вид битрейта : Постоянный
Битрейт : 640 Кбит/сек
Кана
a13036cdacefceffeec5aacea18bd56fb21f3303Кровью и потом: Анаболики / Pain & Gain (Майкл Бэй, криминал, комедия, триллер, боевик, 2013) [BDRip 1080p, Любительский (одноголосый закадровый) [Замез], оригинал (английский), sub] Кровью и потом: Анаболики / Pain & Gain (Майкл Бэй, криминал, комедия, триллер, боевик, 2013) [BDRip 1080p, Любительский (одноголосый закадровый) [Замез], оригинал (английский), sub] " />

Аплоадер: Админ, дата: 14-08-2013, 02:38, торрент скачан: 359 раз

Понравилась раздача? Посмотрите эти:
  • [iPhone, iPod touch, iPad] Кровью и потом: Анаболики / Pain & Gain (Майкл Б ...
  • Кровью и потом: Анаболики / Pain & Gain (Майкл Бэй, криминал, комедия, трил ...
  • Кровью и потом: Анаболики / Pain & Gain (Майкл Бэй, криминал, комедия, трил ...
  • Кровью и потом: Анаболики / Pain & Gain (Майкл Бэй, Криминал, комедия, три ...
  • Кровью и потом: Анаболики / Pain & Gain (Майкл Бэй, криминал, комедия, трил ...
  • Кровью и потом: Анаболики / Pain & Gain (Майкл Бэй, Криминал, комедия, трил ...
  • Кровью и потом: Анаболики / Pain & Gain (Майкл Бэй, криминал, комедия, трил ...
  • Кровью и потом: Анаболики / Pain & Gain (Майкл Бэй, Криминал, комедия, трил ...
  • Кровью и потом: Анаболики / Pain & Gain (Майкл Бэй, криминал, комедия, три ...
  • Кровью и потом: Анаболики / Pain & Gain (Майкл Бэй, криминал, комедия, трил ...
  • Кровью и потом: Анаболики / Pain & Gain (Майкл Бэй, криминал, комедия, трил ...
  • Кровью и потом: Анаболики / Pain & Gain (Майкл Бэй, криминал, комедия, трил ...
  • Кровью и потом: Анаболики / Pain & Gain (Майкл Бэй, криминал, комедия, трил ...
  • Кровью и потом: Анаболики / Pain & Gain (Майкл Бэй, криминал, комедия, трил ...
  • Кровью и потом: Анаболики / Pain & Gain (Майкл Бэй, криминал, комедия, трил ...
  • Кровью и потом: Анаболики / Pain & Gain (Майкл Бэй, криминал, комедия, трил ...
  • Кровью и потом: Анаболики / Pain & Gain (Майкл Бэй, криминал, комедия, трил ...
  • (2013) Steve Jablonsky / Кровью и потом: Анаболики / Pain & Gain (OST) [MP3 ...
  • Кровью и потом: Анаболики / Pain & Gain (Майкл Бэй, криминал, комедия, трил ...
  • [Трейлер] Кровью и потом / Pain & Gain (Майкл Бэй, боевик, триллер, комедия ...
  • Информация
    Посетители, находящиеся в группе Гости, не могут оставлять комментарии к данной публикации.