вход на сайт

Имя пользователя :
Пароль :

Восстановление пароля Регистрация
Кровью и потом: Анаболики / Pain & Gain (Майкл Бэй, криминал, комедия, триллер, боевик, 2013) [BDRip 720p, Любительский (одноголосый закадровый) [Замез], оригинал (английский), sub]
Рейтинг:
(голосов: 1)



[img]{THEME}/images/logopost.png[/img]



Кровью и потом: Анаболики / Pain & Gain
«Мечтай по-крупному»
Год выпуска: 2013
Страна: США
Производство: De Line Pictures, Paramount Pictures, Platinum Dunes
Жанр: криминал, комедия, триллер, боевик

Режиссёр: Майкл Бэй
В ролях: Марк Уолберг, Дуэйн Джонсон, Энтони Маки, Тони Шэлуб, Эд Харрис, Кен Жонг, Иоланта Кабау ван Касберген, Виорика Пинеда, Роб Кордри, Ребел Уилсон

Перевод: Любительский (одноголосый закадровый), оригинал (английский)
Озвучка: Вячеслав Замез
Субтитры: английские

Описание: Однажды тренеру по фитнесу надоело ходить в трениках. Он решил круто изменить свою судьбу и разбогатеть. Нашел двух других незадачливых качков и предложил им план похищения своего клиента-миллионера. Но если в организме мышц больше, чем мозгов, то даже самый лучший план, подсмотренный в экшен-боевике, может не сработать…




премьера (мир): 11 апреля 2013
премьера (РФ): 25 апреля 2013, «Парадиз»

Качество: BDRip 720p
Продолжительность: 02:09:36

Формат: MKV
Видео кодек: AVC
Аудио кодек: AC3
Cвойства видео: 1280х534 (2,40:1), 23.976 fps, ~5635 kbps avg, 0.344 bit/pix
Свойства аудио RU: 48 kHz, AC3 Dolby Digital, 3/2 (L,C,R,l,r) + LFE ch, ~384.00 kbps avg
Свойства аудио EN: 48 kHz, AC3 Dolby Digital, 3/2 (L,C,R,l,r) + LFE ch, ~640.00 kbps avgТех. данные ▼Pain.and.Gain.2013.L1.BDRip.720p.mkv
Format : Matroska
Format version : Version 4 / Version 2
File size : 6.15 GiB
Duration : 2h 9mn
Overall bit rate : 6 795 Kbps
Movie name : Pain.and.Gain.2013.720p.BluRay.x264-HDWinG
Encoded date : UTC 2013-08-13 16:17:21
Writing application : mkvmerge v6.3.0 (You cant stop me!) built on Jun 28 2013 20:09:41
Writing library : libebml v1.3.0 + libmatroska v1.4.0

Video
ID : 1
Format : AVC
Format/Info : Advanced Video Codec
Format profile : [email protected]
Format settings, CABAC : Yes
Format settings, ReFrames : 12 frames
Codec ID : V_MPEG4/ISO/AVC
Duration : 2h 9mn
Bit rate : 5 635 Kbps
Width : 1 280 pixels
Height : 534 pixels
Display aspect ratio : 2.40:1
Frame rate mode : Constant
Frame rate : 23.976 fps
Color space : YUV
Chroma subsampling : 4:2:0
Bit depth : 8 bits
Scan type : Progressive
Bits/(Pixel*Frame) : 0.344
Stream size : 5.10 GiB (83%)
Title : Pain.and.Gain.2013.720p.BluRay.x264-HDWinG
Writing library : x264 core 132 r2323+704+51 d571b1c tMod [[email protected]:2:0 X86_64]
Encoding settings : cabac=1 / ref=12 / deblock=1:-3:-3 / analyse=0x3:0x133 / me=umh / subme=11 / psy=1 / fade_compensate=0.00 / psy_rd=1.00:0.00 / mixed_ref=1 / me_range=32 / chroma_me=1 / trellis=2 / 8x8dct=1 / cqm=0 / deadzone=21,11 / fast_pskip=0 / chroma_qp_offset=-2 / threads=36 / lookahead_threads=4 / sliced_threads=0 / nr=0 / decimate=0 / interlaced=0 / bluray_compat=0 / constrained_intra=0 / fgo=0 / bframes=8 / b_pyramid=2 / b_adapt=2 / b_bias=0 / direct=3 / weightb=1 / open_gop=0 / weightp=2 / keyint=240 / keyint_min=24 / scenecut=40 / intra_refresh=0 / rc=crf / mbtree=0 / crf=17.5000 / qcomp=0.70 / qpmin=0 / qpmax=69 / qpstep=4 / ip_ratio=1.20 / pb_ratio=1.20 / aq=4:0.85 / aq-sensitivity=10.00 / aq-factor=1.00:1.00:1.00 / aq2=0 / aq3=0
Language : English
Default : Yes
Forced : Yes

Audio #1
ID : 2
Format : AC-3
Format/Info : Audio Coding 3
Mode extension : CM (complete main)
Format settings, Endianness : Big
Codec ID : A_AC3
Duration : 2h 9mn
Bit rate mode : Constant
Bit rate : 384 Kbps
Channel(s) : 6 channels
Channel positions : Front: L C R, Side: L R, LFE
Sampling rate : 48.0 KHz
Bit depth : 16 bits
Compression mode : Lossy
Stream size : 356 MiB (6%)
Title : L1 384 zamez
Language : Russian
Default : Yes
Forced : Yes

Audio #2
ID : 3
Format : AC-3
Format/Info : Audio Coding 3
Mode extension : CM (complete main)
Format settings, Endianness : Big
Codec ID : A_AC3
Duration : 2h 9mn
Bit rate mode : Constant
Bit rate : 640 Kbps
Channel(s) : 6 channels
Channel positions : Front: L C R, Side: L R, LFE
Sampling rate : 48.0 KHz
Bit depth : 16 bits
Compression mode : Lossy
Stream size : 593 MiB (9%)
Title : 640
Language : English
Default
ebd46d7435dca663c90255ba3818913004a018b0Кровью и потом: Анаболики / Pain & Gain (Майкл Бэй, криминал, комедия, триллер, боевик, 2013) [BDRip 720p, Любительский (одноголосый закадровый) [Замез], оригинал (английский), sub] Кровью и потом: Анаболики / Pain & Gain (Майкл Бэй, криминал, комедия, триллер, боевик, 2013) [BDRip 720p, Любительский (одноголосый закадровый) [Замез], оригинал (английский), sub] " />

Аплоадер: Админ, дата: 14-08-2013, 00:03, торрент скачан: 359 раз

Понравилась раздача? Посмотрите эти:
  • [iPhone, iPod touch, iPad] Кровью и потом: Анаболики / Pain & Gain (Майкл Б ...
  • Кровью и потом: Анаболики / Pain & Gain (Майкл Бэй, криминал, комедия, трил ...
  • Погнали! / Getaway (Кортни Соломон, боевик, криминал, 2013) [BDRip 720p, Пр ...
  • Кровью и потом: Анаболики / Pain & Gain (Майкл Бэй, криминал, комедия, трил ...
  • Ледяной / The Iceman (Ариэль Вромен, драма, криминал, биография, 2013) [BDR ...
  • Кровью и потом: Анаболики / Pain & Gain (Майкл Бэй, Криминал, комедия, три ...
  • Кровью и потом: Анаболики / Pain & Gain (Майкл Бэй, криминал, комедия, трил ...
  • Кровью и потом: Анаболики / Pain & Gain (Майкл Бэй, Криминал, комедия, трил ...
  • Кровью и потом: Анаболики / Pain & Gain (Майкл Бэй, криминал, комедия, трил ...
  • Кровью и потом: Анаболики / Pain & Gain (Майкл Бэй, Криминал, комедия, трил ...
  • Кровью и потом: Анаболики / Pain & Gain (Майкл Бэй, криминал, комедия, три ...
  • Кровью и потом: Анаболики / Pain & Gain (Майкл Бэй, криминал, комедия, трил ...
  • Кровью и потом: Анаболики / Pain & Gain (Майкл Бэй, криминал, комедия, трил ...
  • Кровью и потом: Анаболики / Pain & Gain (Майкл Бэй, криминал, комедия, трил ...
  • Кровью и потом: Анаболики / Pain & Gain (Майкл Бэй, криминал, комедия, трил ...
  • Кровью и потом: Анаболики / Pain & Gain (Майкл Бэй, криминал, комедия, трил ...
  • Кровью и потом: Анаболики / Pain & Gain (Майкл Бэй, криминал, комедия, трил ...
  • Кровью и потом: Анаболики / Pain & Gain (Майкл Бэй, криминал, комедия, трил ...
  • Кровью и потом: Анаболики / Pain & Gain (Майкл Бэй, криминал, комедия, трил ...
  • (2013) Steve Jablonsky / Кровью и потом: Анаболики / Pain & Gain (OST) [MP3 ...
  • Обливион / Oblivion (Джозеф Косински, фантастика, боевик, триллер, приключе ...
  • Кровью и потом: Анаболики / Pain & Gain (Майкл Бэй, криминал, комедия, трил ...
  • Добро пожаловать в капкан / Welcome to the Punch (Эрен Криви, боевик, трил ...
  • Пираньи 3DD / Piranha 3DD (Джон Гулажер, ужасы, триллер, комедия, 2012) [BD ...
  • [Трейлер] Кровью и потом / Pain & Gain (Майкл Бэй, боевик, триллер, комедия ...
  • Информация
    Посетители, находящиеся в группе Гости, не могут оставлять комментарии к данной публикации.