вход на сайт

Имя пользователя :
Пароль :

Восстановление пароля Регистрация
Экзамен для двоих / Admission (Пол Вайц, драма, мелодрама, комедия, 2013) [BDRip 720p, полное дублирование]
Рейтинг:
(голосов: 1)



[img]{THEME}/images/logopost.png[/img]



Экзамен для двоих / Admission

Год выпуска: 2013
Страна: США
Производство: Depth of Field
Жанр: драма, мелодрама, комедия

Режиссёр: Пол Вайц / Paul Weitz
В ролях: Тина Фей, Пол Радд, Нат Вулф, Траварис Спирс, Глория Рубен, Лили Томлин, Уоллес Шоун, Майкл Шин, Олек Крупа, Майкл Дженадри

Перевод: полное дублирование
Субтитры: нет

Описание: Полли Нельсон работает в приемной комиссии престижного университета, она — вершитель судеб многих подростков. Но как устроить собственную судьбу? Появление идеального мужчины вовсе не обещает мир и покой, наоборот, приносит в её жизнь множество дурацких ситуаций и не всегда приятных сюрпризов. А тут ещё объявляется сын, которого Полли считала потерянным, и он, увы, далеко не отличник. Что спасать в первую очередь, карьеру или личную жизнь?



Качество: BDRip 720p
Продолжительность: 01:44:58 час.

Формат: Matroska
Видео кодек: x264
Аудио кодек: AC3
Видео: 1280х534 (2,40:1), 25.000 fps, ~5 322 kbps avg, 0.311 bit/pixel
Аудио: 48 kHz, AC3 Dolby Digital, 3/2 (L,C,R,l,r) + LFE ch, ~640 kbps

Дата премьеры (мир): 22 марта 2013
Дата премьеры (РФ): 27 июня 2013, «Люксор»

MediaInfo: ▼Format : Matroska
Format version : Version 4 / Version 2
File size : 4.37 GiB
Duration : 1h 44mn
Overall bit rate : 5 961 Kbps
Movie name : Экзамен для двоих.(2013).BDRip.720p
Encoded date : UTC 2013-08-04 14:49:40
Writing application : mkvmerge v6.3.0 (You cant stop me!) built on Jun 28 2013 20:09:41
Writing library : libebml v1.3.0 + libmatroska v1.4.0

Video
ID : 1
Format : AVC
Format/Info : Advanced Video Codec
Format profile : [email protected]
Format settings, CABAC : Yes
Format settings, ReFrames : 12 frames
Codec ID : V_MPEG4/ISO/AVC
Duration : 1h 44mn
Bit rate : 5 322 Kbps
Width : 1 280 pixels
Height : 534 pixels
Display aspect ratio : 2.40:1
Frame rate mode : Constant
Frame rate : 25.000 fps
Color space : YUV
Chroma subsampling : 4:2:0
Bit depth : 8 bits
Scan type : Progressive
Bits/(Pixel*Frame) : 0.311
Stream size : 3.81 GiB (87%)
Writing library : x264 core 135 r2345 f0c1c53
Encoding settings : cabac=1 / ref=12 / deblock=1:0:0 / analyse=0x3:0x113 / me=umh / subme=11 / psy=1 / psy_rd=1.00:0.15 / mixed_ref=1 / me_range=32 / chroma_me=1 / trellis=2 / 8x8dct=1 / cqm=0 / deadzone=21,11 / fast_pskip=0 / chroma_qp_offset=-3 / threads=6 / lookahead_threads=1 / sliced_threads=0 / nr=0 / decimate=0 / interlaced=0 / bluray_compat=0 / constrained_intra=0 / bframes=5 / b_pyramid=2 / b_adapt=2 / b_bias=0 / direct=3 / weightb=1 / open_gop=0 / weightp=2 / keyint=250 / keyint_min=25 / scenecut=40 / intra_refresh=0 / rc=2pass / mbtree=0 / bitrate=5322 / ratetol=1.0 / qcomp=0.60 / qpmin=0 / qpmax=69 / qpstep=4 / cplxblur=20.0 / qblur=0.5 / ip_ratio=1.40 / pb_ratio=1.30 / aq=1:0.95
Language : English
Default : Yes
Forced : No

Audio
ID : 2
Format : AC-3
Format/Info : Audio Coding 3
Mode extension : CM (complete main)
Format settings, Endianness : Big
Codec ID : A_AC3
Duration : 1h 44mn
Bit rate mode : Constant
Bit rate : 640 Kbps
Channel(s) : 6 channels
Channel positions : Front: L C R, Side: L R, LFE
Sampling rate : 48.0 KHz
Bit depth : 16 bits
Compression mode : Lossy
Stream size : 481 MiB (11%)
Title : Дублированный
Language : Russian
Default : Yes
Forced : No

Menu
00:00:00.000 : en:00:00:00.000
00:02:43.920 : en:00:02:43.920
00:13:31.440 : en:00:13:31.440
00:23:24.960 : en:00:23:24.960
00:36:26.960 : en:00:36:26.960
00:45:21.000 : en:00:45:21.000
00:59:19.760 : en:00:59:19.760
01:18:58.320 : en:01:18:58.320
01:34:03.960 : en:01:34:03.960





90cee7a3b50eed0096b49b0cd0697915f3a9106eЭкзамен для двоих / Admission (Пол Вайц, драма, мелодрама, комедия, 2013) [BDRip 720p, полное дублирование] Экзамен для двоих / Admission (Пол Вайц, драма, мелодрама, комедия, 2013) [BDRip 720p, полное дублирование] " />

Аплоадер: Админ, дата: 7-08-2013, 00:23, торрент скачан: 359 раз

Понравилась раздача? Посмотрите эти:
  • Eminem / Rap God [2013, Rap, HDRip]
  • Экзамен для двоих / Admission (Пол Вайц, Драма, мелодрама, комедия, 2013) [ ...
  • Турбо / Turbo (Дэвид Сорен, Мультфильм, комедия, приключения, семейный, спо ...
  • Иллюзия обмана / Now You See Me [Theatrical Cut] (Луи Летерье / Louis Leter ...
  • Zомби каникулы (Кирилл Кемниц, Ужасы, триллер, комедия, 2013) [BDRip 720p, ...
  • Экзамен для двоих / Admission (Пол Вайц, Драма, мелодрама, комедия, 2013) [ ...
  • Властелин любви / The Look of Love (Майкл Уинтерботтом, драма, комедия, био ...
  • Экзамен для двоих / Admission (Пол Вайц, Драма, мелодрама, комедия, 2013) [ ...
  • Экзамен для двоих / Admission (Пол Вайц, Драма, мелодрама, комедия, 2013) [ ...
  • Экзамен для двоих / Admission (Пол Вайц, Драма, мелодрама, комедия, 2013) [ ...
  • Экзамен для двоих / Admission (Пол Вайц, Драма, мелодрама, комедия, 2013) [ ...
  • Экзамен для двоих / Admission (Пол Вайц, Драма, мелодрама, комедия, 2013) [ ...
  • Экзамен для двоих / Admission (Пол Вайц, Драма, мелодрама, комедия, 2013) [ ...
  • Экзамен для двоих / Admission (Пол Вайц, Драма, мелодрама, комедия, 2013) [ ...
  • Экзамен для двоих / Admission (Пол Вайц / Paul Weitz, Драма, мелодрама, ком ...
  • Экзамен для двоих / Admission (Пол Вайц, Драма, мелодрама, комедия, 2013) [ ...
  • UFC The Ultimate 100 Knockouts - PPV [MMA,2013, HDTVRip 720p]
  • [Трейлер] Экзамен для двоих / Admission (Пол Вайц, драма, мелодрама, комеди ...
  • Жизнь Пи / Life Of Pi (Энг Ли, Драма, приключения, 2012) [BDRip 720p, Профе ...
  • Жизнь Пи / Life Of Pi (Энг Ли, Драма, приключения, 2012) [BDRip 1080p, Проф ...
  • Ларри Краун / Larry Crowne (Том Хэнкс, драма, мелодрама, комедия, 2011) [BD ...
  • Домашняя работа / The Art of Getting By (Гэвин Вьесен, драма, мелодрама, 20 ...
  • Значит, война / This Means War (МакДжи, боевик, мелодрама, комедия, 2012) [ ...
  • Mylene Farmer / Du Temps [2011, Pop, HDTVRip]
  • Mylene Farmer / Bleu Noir [2011, Pop, HDTVRip]
  • Информация
    Посетители, находящиеся в группе Гости, не могут оставлять комментарии к данной публикации.