вход на сайт

Имя пользователя :
Пароль :

Восстановление пароля Регистрация
Любовь без пересадок / Amour & turbulences (Александр Кастаньетти, мелодрама, комедия, 2013) [BDRip 720p, Дублированный, оригинал (французский), sub]
Рейтинг:
(голосов: 1)



[img]{THEME}/images/logopost.png[/img]



Любовь без пересадок / Amour & turbulences
«Любовь - это полёт. Пристегните ремни!»

Год выпуска: 2013
Страна: Франция
Производство: Indéfilms, Kinology, Manchester Films
Жанр: мелодрама, комедия

Режиссёр: Александр Кастаньетти
В ролях: Людивин Санье,Николя Бедо, Джонатан Коэн, Арно Дюкре, Бриджитт Катийон, Жакки Берруайе, Клементин Селарье, Мишель Вюйермоз, Лила Сале, Ина Кастаньетти

Перевод: Дублированный, оригинал (французский)
Субтитры: Французские

Описание: Преуспевающий адвокат Антуан никогда не знал недостатка в женском внимании. Отправляясь по делам из Нью-Йорка в Париж, в самолете он оказывается в соседнем кресле с бывшей подругой Джули. Обреченные провести вместе семь долгих часов бывшие любовники успевают вспомнить былые обиды, все неприятности, доставленные друг другу, и понять, что их разрыв был ошибкой. Но успеют ли они эту ошибку исправить?




Дата премьеры (мир): 3 апреля 2013

Качество: BDRip 720р
Продолжительность: 01:37:08

Формат: MKV
Видео кодек: MPEG-4 AVC
Аудио кодек: AC3/DTS
Cвойства видео: 1280x536 (2.40:1), 23.976 fps, ~4 930 kbps avg
Свойства аудио RU: 48 kHz, DTS, 3/2 (L,C,R,l,r) + LFE ch, ~256.00 kbps avg |Дубляж, Blu-ray CEE|
Свойства аудио FR: 48 kHz, DTS, 3/2 (L,C,R,l,r) + LFE ch, ~1509.00 kbps avg Тех. данные ▼General
Complete name : Lubov.bez.peresadok.2013.D.BDRip.720p.mkv
Format : Matroska
Format version : Version 2
File size : 4.54 GiB
Duration : 1h 37mn
Overall bit rate : 6 683 Kbps
Encoded date : UTC 2013-08-05 21:17:05
Writing application : mkvmerge v2.9.8 (Cest le bon) built on Nov 20 2009 13:01:15
Writing library : libebml v0.7.9 + libmatroska v0.8.1

Video
ID : 1
Format : AVC
Format/Info : Advanced Video Codec
Format profile : [email protected]
Format settings, CABAC : Yes
Format settings, ReFrames : 5 frames
Codec ID : V_MPEG4/ISO/AVC
Duration : 1h 37mn
Bit rate : 4 930 Kbps
Width : 1 280 pixels
Height : 536 pixels
Display aspect ratio : 2.40:1
Frame rate : 23.976 fps
Color space : YUV
Chroma subsampling : 4:2:0
Bit depth : 8 bits
Scan type : Progressive
Bits/(Pixel*Frame) : 0.300
Stream size : 3.25 GiB (72%)
Writing library : x264 core 135 r2345 f0c1c53
Encoding settings : cabac=1 / ref=5 / deblock=1:0:0 / analyse=0x3:0x133 / me=umh / subme=8 / psy=1 / psy_rd=1.00:0.00 / mixed_ref=1 / me_range=16 / chroma_me=1 / trellis=1 / 8x8dct=1 / cqm=0 / deadzone=21,11 / fast_pskip=0 / chroma_qp_offset=-2 / threads=24 / lookahead_threads=4 / sliced_threads=0 / nr=0 / decimate=1 / interlaced=0 / bluray_compat=0 / constrained_intra=0 / bframes=3 / b_pyramid=2 / b_adapt=1 / b_bias=0 / direct=1 / weightb=1 / open_gop=0 / weightp=2 / keyint=250 / keyint_min=23 / scenecut=40 / intra_refresh=0 / rc=2pass / mbtree=0 / bitrate=4930 / ratetol=1.0 / qcomp=0.60 / qpmin=0 / qpmax=69 / qpstep=4 / cplxblur=20.0 / qblur=0.5 / ip_ratio=1.40 / pb_ratio=1.30 / aq=1:1.00
Language : English
Default : No
Forced : No

Audio #1
ID : 2
Format : AC-3
Format/Info : Audio Coding 3
Mode extension : CM (complete main)
Format settings, Endianness : Big
Codec ID : A_AC3
Duration : 1h 37mn
Bit rate mode : Constant
Bit rate : 256 Kbps
Channel(s) : 6 channels
Channel positions : Front: L C R, Side: L R, LFE
Sampling rate : 48.0 KHz
Bit depth : 16 bits
Compression mode : Lossy
Stream size : 178 MiB (4%)
Language : Russian
Default : Yes
Forced : No

Audio #2
ID : 3
Format : DTS
Format/Info : Digital Theater Systems
Codec ID : A_DTS
Duration : 1h 37mn
Bit rate mode : Constant
Bit rate : 1 510 Kbps
Channel(s) : 6 channels
Channel positions : Front: L C R, Side: L R, LFE
Sampling rate : 48.0 KHz
Bit depth : 24 bits
Compression mode : Lossy
Delay relative to video : 11ms
Stream size : 1.02 GiB (23%)
Title : French
Language : French
Default : No
Forced : No

Text
ID : 4
Format : UTF-8
Codec ID : S_TEXT/UTF8
Codec ID/Info : UTF-8 Plain Text
Title : French Forced
Language
8e11860e0a807b68dabde740b46bed4cbdc0beb9Любовь без пересадок / Amour & turbulences (Александр Кастаньетти, мелодрама, комедия, 2013) [BDRip 720p, Дублированный, оригинал (французский), sub] Любовь без пересадок / Amour & turbulences (Александр Кастаньетти, мелодрама, комедия, 2013) [BDRip 720p, Дублированный, оригинал (французский), sub] " />

Аплоадер: Админ, дата: 6-08-2013, 13:11, торрент скачан: 359 раз

Понравилась раздача? Посмотрите эти:
  • Грязь / Filth (Джон С. Бейрд, криминал, драма, комедия, 2013) [BDRip-AVC, ...
  • Погнали! / Getaway (Кортни Соломон, боевик, криминал, 2013) [BDRip 720p, Пр ...
  • Любовь без пересадок / Amour & turbulences (Александр Кастаньетти, Мелодрам ...
  • Верное дельце / Une pure affaire (Александр Коффре, Боевик, Комедия, Кримин ...
  • 42 / 42 (Брайан Хелгеленд, Драма, биография, спорт, 2013) [BDRip 720p, Проф ...
  • Любовь без пересадок / Amour & turbulences (Александр Кастаньетти, мелодрам ...
  • Экзамен для двоих / Admission (Пол Вайц, драма, мелодрама, комедия, 2013) [ ...
  • Любовь без пересадок / Amour & turbulences (Александр Кастаньетти, Мелодрам ...
  • Даю год / I Give It a Year (Дэн Мазер, Мелодрама, Комедия, 2013) [BDRip-AVC ...
  • [Трейлер] Любовь без пересадок / Amour et turbulences (Александр Кастаньетт ...
  • Суррогат / The Sessions (Бен Луин, драма, 2012) [BDRip 720p, Профессиональн ...
  • Любовь С Препятствиями / Un Bonheur Narrive Jamais Seul (Джеймс Хат, Мелодр ...
  • Секс по дружбе / Friends with Benefits (Уилл Глак, драма, мелодрама, комеди ...
  • Чужой билет / Bounce (Дон Рус, драма, мелодрама, 2000) [BDRip 720p, Дублиро ...
  • Значит, война / This Means War (МакДжи, боевик, мелодрама, комедия, 2012) [ ...
  • Проект X: Дорвались / Project X (Нима Нуризаде, комедия, 2012) [BDRip 720p, ...
  • Мачо и ботан / 21 Jump Street (Фил Лорд, Крис Миллер, боевик, комедия, 2012 ...
  • «Весёлые» каникулы / Get the Gringo (Адриан Грюнберг, Боевик, комедия, 2012 ...
  • Ворон / The Raven (Джеймс МакТиг, Триллер, детектив, 2012) [BDRip 720p, Дуб ...
  • Рок на века / Rock of Ages (Адам Шенкман, Мюзикл, драма, мелодрама, комедия ...
  • Информация
    Посетители, находящиеся в группе Гости, не могут оставлять комментарии к данной публикации.