вход на сайт

Имя пользователя :
Пароль :

Восстановление пароля Регистрация
Падение Олимпа / Olympus Has Fallen (Антуан Фукуа, Боевик, триллер, 2013) [BDRip 1080p, Полное дублирование + Оригинал (английский) + Субтитры]
Рейтинг:
(голосов: 1)



[img]{THEME}/images/logopost.png[/img]



Падение Олимпа / Olympus Has Fallen
Cлоган: «Удар был нанесён в самое сердце. Но он заставит его биться вновь.»

Год выпуска: 2013
Страна: США
Производство: Millennium Films
Жанр: Боевик, триллер

Режиссёр: Антуан Фукуа / Antoine Fuqua
В ролях: Джерард Батлер, Аарон Экхарт, Морган Фриман, Эшли Джадд, Мелисса Лео, Финли Якобсен, Дилан МакДермотт, Рик Юн, Анджела Бассетт, Рада Митчелл

Перевод: Полное дублирование,
+ Оригинал (английский)
Субтитры: Русские (voronine), Английские

Описание: Когда на Белый Дом нападают террористы, а президента берут в заложники, дискредитированный бывший охранник главы государства Майк Бэннинг оказывается внутри захваченного здания. И теперь он единственный, кто сможет спасти президента…
Дата премьеры (мир): 20 марта 2013
Дата премьеры (РФ): 4 апреля 2013, «Парадиз»

Качество: BDRip 1080p
Продолжительность: 01:59:09

Формат: Matroska
Видео кодек: H264
Аудио кодек: AC3
Видео: 1920x800 (2,40:1), 24.000 fps, ~8038 kbps avg, 0.218 bit/pixel
Аудио #1: 48 kHz, AC3 Dolby Digital, 3/2 (L,C,R,l,r) + LFE ch, ~640 kbps |DUB|
Аудио #2: 48 kHz, AC3 Dolby Digital, 3/2 (L,C,R,l,r) + LFE ch, ~640 kbps |ENG|
MediaInfo | x264 ▼x264 ▼x264 [info]: frame I:1370 Avg QP:15.25 size:155317
x264 [info]: frame P:42366 Avg QP:17.74 size: 69213
x264 [info]: frame B:127841 Avg QP:19.88 size: 31508
Общее
Уникальный идентификатор : 208041258895268490923364547010848624487 (0x9C8349FD0C0B35399EF7ED6DF55C0F67)
Полное имя : E:Olympus.Has.Fallen.2013.BDRip.1080p.Rus.Eng.mkv
Формат : Matroska
Версия формата : Version 4 / Version 2
Размер файла : 7,76 Гбайт
Продолжительность : 1 ч. 59 м.
Общий поток : 9319 Кбит/сек
Название фильма : Падение Олимпа / Olympus Has Fallen (2013)
Дата кодирования : UTC 2013-07-20 21:10:03
Программа кодирования : mkvmerge v6.3.0 (You cant stop me!) built on Jun 28 2013 20:09:41
Библиотека кодирования : libebml v1.3.0 + libmatroska v1.4.0
Attachment : Yes

Видео
Идентификатор : 1
Формат : AVC
Формат/Информация : Advanced Video Codec
Профиль формата : [email protected]
Параметр CABAC формата : Да
Параметр ReFrames формата : 5 кадров
Идентификатор кодека : V_MPEG4/ISO/AVC
Продолжительность : 1 ч. 59 м.
Битрейт : 8038 Кбит/сек
Ширина : 1920 пикселей
Высота : 800 пикселей
Соотношение сторон : 2,40:1
Режим частоты кадров : Постоянный
Частота кадров : 24,000 кадра/сек
Цветовое пространство : YUV
Субдискретизация насыщенности : 4:2:0
Битовая глубина : 8 бит
Тип развёртки : Прогрессивная
Бит/(Пиксели*Кадры) : 0.218
Размер потока : 6,54 Гбайт (84%)
Заголовок : Release by N1NT3NDO
Библиотека кодирования : x264 core 135 r2345 f0c1c53
Настройки программы : cabac=1 / ref=5 / deblock=1:-3:-3 / analyse=0x3:0x133 / me=umh / subme=11 / psy=1 / psy_rd=1.00:0.00 / mixed_ref=1 / me_range=32 / chroma_me=1 / trellis=2 / 8x8dct=1 / cqm=0 / deadzone=21,11 / fast_pskip=0 / chroma_qp_offset=-2 / threads=12 / lookahead_threads=1 / sliced_threads=0 / nr=0 / decimate=0 / interlaced=0 / bluray_compat=0 / constrained_intra=0 / bframes=6 / b_pyramid=2 / b_adapt=2 / b_bias=0 / direct=3 / weightb=1 / open_gop=0 / weightp=2 / keyint=240 / keyint_min=24 / scenecut=40 / intra_refresh=0 / rc=2pass / mbtree=0 / bitrate=8038 / ratetol=1.0 / qcomp=0.60 / qpmin=0 / qpmax=69 / qpstep=4 / cplxblur=20.0 / qblur=0.5 / ip_ratio=1.40 / pb_ratio=1.30 / aq=1:0.70
Язык : English
Default : Да
Forced : Нет

Аудио #1
Идентификатор : 2
Формат : AC-3
Формат/Информация : Audio Coding 3
Расширение режима : CM (complete main)
Параметр Endianness формата : Big
Идентификатор кодека : A_AC3
Продолжительность : 1 ч. 59 м.
Вид битрейта : Постоянный
Битрейт : 640 Кбит/сек
Каналы : 6 каналов
Расположение каналов : Front: L C R, Side: L R, LFE
Частота : 48,0 КГц
Битовая глубина : 16 бит
Метод сжатия : С потерями
Размер потока : 545 Мбайт (7%)
Заголовок : Rus
Язык : Russian
Default : Да
Forced : Нет

Аудио #2
Идентификатор : 3
Формат : AC-3
Формат/Информация : Audio Coding 3
Расширение режима : CM (complete main
0edee26bbf6f7063c49d408764575b7f68095e81Падение Олимпа / Olympus Has Fallen (Антуан Фукуа, Боевик, триллер, 2013) [BDRip 1080p, Полное дублирование + Оригинал (английский) + Субтитры] Падение Олимпа / Olympus Has Fallen (Антуан Фукуа, Боевик, триллер, 2013) [BDRip 1080p, Полное дублирование + Оригинал (английский) + Субтитры] " />

Аплоадер: Админ, дата: 22-07-2013, 00:39, торрент скачан: 359 раз

Понравилась раздача? Посмотрите эти:
  • Падение Олимпа / Olympus Has Fallen (Антуан Фукуа, Боевик, триллер, 2013) [ ...
  • Падение Олимпа / Olympus Has Fallen (Антуан Фукуа, боевик, триллер, 2013) [ ...
  • Византия / Byzantium (Нил Джордан, Фэнтези, триллер, драма, 2012) [BDRip 10 ...
  • Заклятие / The Conjuring (Джеймс Ван, ужасы, триллер, 2013) [BDRip 1080p, Д ...
  • Война миров Z / World War Z [Theatrical Cut] (Марк Форстер, ужасы, фантасти ...
  • Исходный код / Source Code (Дункан Джонс, фантастика, боевик, триллер, драм ...
  • Падение Олимпа / Olympus Has Fallen (Антуан Фукуа, Боевик, триллер, 2013) [ ...
  • Падение Олимпа / Olympus Has Fallen (Антуан Фукуа, Боевик, триллер, 2013) [ ...
  • Падение Олимпа / Olympus Has Fallen (Антуан Фукуа, Боевик, триллер, 2013) [ ...
  • Падение Олимпа / Olympus Has Fallen (Антуан Фукуа, Боевик, триллер, 2013) [ ...
  • Падение Олимпа / Olympus Has Fallen (Антуан Фукуа, боевик, триллер, 2013) [ ...
  • Падение Олимпа / Olympus Has Fallen (Антуан Фукуа, Боевик, триллер, 2013) [ ...
  • Падение Олимпа / Olympus Has Fallen (Антуан Фукуа, Боевик, триллер, 2013) [ ...
  • Падение Олимпа / Olympus Has Fallen (Антуан Фукуа, Боевик, триллер, 2013) [ ...
  • Падение Олимпа / Olympus Has Fallen (Антуан Фукуа, Боевик, триллер, 2013) [ ...
  • Падение Олимпа / Olympus Has Fallen (Антуан Фукуа, Боевик, триллер, 2013) [ ...
  • Падение Олимпа / Olympus Has Fallen (Антуан Фукуа, Боевик, триллер, 2013) [ ...
  • Падение Олимпа / Olympus Has Fallen (Антуан Фукуа, боевик, триллер, 2013) [ ...
  • Ворон / The Raven (Джеймс МакТиг, Триллер, детектив, 2012) [BDRip 1080p, Ду ...
  • [Трейлер] Падение Олимпа / Olympus Has Fallen (Антуан Фукуа, боевик, трилле ...
  • Информация
    Посетители, находящиеся в группе Гости, не могут оставлять комментарии к данной публикации.