вход на сайт

Имя пользователя :
Пароль :

Восстановление пароля Регистрация
Железный человек 3 / Iron Man 3 (Шейн Блэк, фантастика, боевик, триллер, 2013) [BDRip 1080р Дублированное, Commentary, оригинал (английский), sub]
Рейтинг:
(голосов: 1)



[img]{THEME}/images/logopost.png[/img]



Железный человек 3 / Iron Man 3
«Герой будет сражен»

Год выпуска: 2013
Страна: США, Китай
Производство: Fairview Entertainment, Marvel Studios Inc., Paramount Pictures
Жанр: фантастика, боевик, триллер

Режиссёр: Шейн Блэк
В ролях: Роберт Дауни мл., Гвинет Пэлтроу, Дон Чидл, Гай Пирс, Бен Кингсли, Ребекка Холл, Пол Беттани, Джон Фавро, Уильям Сэдлер, Джеймс Бэдж Дэйл

Перевод: Дублированное, Commentary, оригинал (английский)
Субтитры: Русские, английские, украинские, румынские

Описание: Когда мир Старка рушится на его глазах по вине неизвестных противников, Тони жаждет найти виновных и свести с ними счеты.
Оказавшись в безвыходной ситуации, Старк может рассчитывать только на себя и свою изобретательность, чтобы защитить тех, кто ему дорог.
Это становится настоящим испытанием для героя, которому придется не только сражаться с коварным врагом, но и разобраться в себе, чтобы найти ответ на вопрос, который давно его тревожит: что важнее — человек или костюм?




Дата премьеры (Мир): 18 апреля 2013
Дата премьеры (РФ): 2 мая 2013, «WDSSPR»

Качество: BDRip 1080p
Продолжительность: 02:10:32

Формат: MKV
Видео кодек: MPEG-4 AVC
Аудио кодек: AC3/DTS
Cвойства видео: 1920х800 (2.40:1), 23.976 fps, MPEG-4 AVC ~9 500 kbps avg, 0.258 bit/pixels
Свойства аудио 1: 48 kHz, DTS, 3/2 (L,C,R,l,r) + LFE ch, ~ 1510.00 kbps avg | Дубляж [Disney / Buena Vista]
Свойства аудио 2: 48 kHz, DTS, 3/2 (L,C,R,l,r) + LFE ch, ~ 1510.00 kbps avg | English
Свойства аудио 3: 48 kHz, AC3 Dolby Digital, 2 (L,R) ch, ~ 192.00 kbps avg | Commentary
Media Info ▼Iron.Man.3.2013.1080p.Blu-ray.x264.Rus.2xEng.Subs-JDoe.mkv
Format : Matroska
File size : 11.6 GiB
Duration : 2h 10mn
Overall bit rate : 12.7 Mbps
Movie name : released by StarD
Encoded date : UTC 2013-08-20 15:49:08
Writing application : mkvmerge v5.2.0 (I cant explain) built on Dec 18 2011 18:12:03
Writing library : libebml v1.2.3 + libmatroska v1.3.0

Video
ID : 1
Format : AVC
Format/Info : Advanced Video Codec
Format profile : [email protected]
Format settings, CABAC : Yes
Format settings, ReFrames : 5 frames
Codec ID : V_MPEG4/ISO/AVC
Duration : 2h 10mn
Bit rate : 9 500 Kbps
Width : 1 920 pixels
Height : 800 pixels
Display aspect ratio : 2.40:1
Frame rate : 23.976 fps
Color space : YUV
Chroma subsampling : 4:2:0
Bit depth : 8 bits
Scan type : Progressive
Bits/(Pixel*Frame) : 0.258
Stream size : 8.43 GiB (73%)
Title : Iron.Man.3.2013
Writing library : x264 core 132 r2310 76a5c3a
Encoding settings : cabac=1 / ref=5 / deblock=1:-3:-3 / analyse=0x3:0x133 / me=umh /
subme=10 / psy=1 / psy_rd=1.00:0.05 / mixed_ref=1 / me_range=32 / chroma_me=1 / trellis=2 /
8x8dct=1 / cqm=0 / deadzone=21,11 / fast_pskip=0 / chroma_qp_offset=-2 / threads=18 /
lookahead_threads=1 / sliced_threads=0 / nr=0 / decimate=1 / interlaced=0 / bluray_compat=0 /
constrained_intra=0 / bframes=4 / b_pyramid=2 / b_adapt=2 / b_bias=0 / direct=3 / weightb=1 /
open_gop=0 / weightp=2 / keyint=250 / keyint_min=23 / scenecut=40 / intra_refresh=0 / rc=2pass /
mbtree=0 / bitrate=9500 / ratetol=1.0 / qcomp=0.70 / qpmin=0 / qpmax=69 / qpstep=4 / cplxblur=20.0
/ qblur=0.5 / ip_ratio=1.40 / pb_ratio=1.30 / aq=2:1.00
Language : English

Audio #1
ID : 2
Format : DTS
Format/Info : Digital Theater Systems
Codec ID : A_DTS
Duration : 2h 10mn
Bit rate mode : Constant
Bit rate : 1 510 Kbps
Channel(s) : 6 channels
Channel positions : Front: L C R, Side: L R, LFE
Sampling rate : 48.0 KHz
Bit depth : 24 bits
Compression mode : Lossy
Stream size : 1.38 GiB (12%)
Title : DTS 5.1 @ 1536 kbps, Дубляж [Disney / Buena Vista]
Language : Russian

Audio #2
ID : 3
Format : DTS
Format/Info : Digital Theater Systems
Codec ID : A_DTS
Duration : 2h 10mn
Bit rate mode : Constant
Bit rate : 1 510 Kbps
Channel(s) : 6 channels
Channel positions : Front: L C R, Side: L R, LFE
Sampling rate : 48.0 KHz
Bit depth : 24 bits
Compression mode : Lossy
Stream size : 1.38 GiB (12%)
Title : DTS 5.1 @ 1536 kbps
Language : English

Audio
91c75af03d8c9fd4faf90fdf471e009f26016569Железный человек 3 / Iron Man 3 (Шейн Блэк, фантастика, боевик, триллер, 2013) [BDRip 1080р Дублированное, Commentary, оригинал (английский), sub] Железный человек 3 / Iron Man 3 (Шейн Блэк, фантастика, боевик, триллер, 2013) [BDRip 1080р Дублированное, Commentary, оригинал (английский), sub] " />

Аплоадер: Админ, дата: 21-08-2013, 09:13, торрент скачан: 359 раз

Понравилась раздача? Посмотрите эти:
  • Железный человек 3 / Iron Man 3 (Шейн Блэк, Фантастика, боевик, приключения ...
  • Железный человек 3 / Iron Man 3 (Шейн Блэк, Фантастика, боевик, приключения ...
  • [3D] Железный человек 3 / Iron Man 3 (Шейн Блэк, Фантастика, боевик, приклю ...
  • [3D] Железный человек 3 / Iron Man 3 (Шейн Блэк, Фантастика, боевик, приклю ...
  • [3D] Железный человек 3 / Iron Man 3 (Шейн Блэк, Фантастика, боевик, приклю ...
  • Железный человек 3 / Iron Man 3 (Шейн Блэк, Фантастика, боевик, приключения ...
  • Железный человек 3 / Iron Man 3 (Шейн Блэк, фантастика, боевик, приключения ...
  • [3D] Железный человек 3 / Iron Man 3 (Шейн Блэк, Фантастика, боевик, приклю ...
  • Железный человек 3 / Iron Man 3 (Шейн Блэк, Фантастика, боевик, приключения ...
  • Железный человек 3 / Iron Man 3 (Шейн Блэк, Фантастика, боевик, приключения ...
  • Железный человек 3 / Iron Man 3 (Шейн Блэк, Фантастика, боевик, приключения ...
  • Железный человек 3 / Iron Man 3 (Шейн Блэк, Фантастика, боевик, приключения ...
  • Железный человек 3 / Iron Man 3 (Шейн Блэк, Фантастика, боевик, приключения ...
  • Железный человек 3 / Iron Man 3 (Шейн Блэк, Фантастика, боевик, приключения ...
  • Железный человек 3 / Iron Man 3 (Шейн Блэк, Фантастика, боевик, приключения ...
  • Железный человек 3 / Iron Man 3 (Шейн Блэк, Фантастика, боевик, приключения ...
  • Железный человек 3 / Iron Man 3 (Шейн Блэк, фантастика, боевик, триллер, 20 ...
  • Железный человек 3 / Iron Man 3 (Шейн Блэк, Фантастика, боевик, приключения ...
  • Железный человек 3 / Iron Man 3 (Шейн Блэк, фантастика, боевик, триллер, 20 ...
  • Железный человек 3 / Iron Man 3 (Шейн Блэк, фантастика, боевик, триллер, 20 ...
  • [Доп. материалы] Железный человек 3 / Iron Man 3 (Шейн Блэк, Фантастика, бо ...
  • [3D] Железный человек 3 3D трейлер / Iron Man 3 3D trailer (Шейн Блэк, Фант ...
  • Железный человек / Iron Man (Джон Фавро, фантастика, боевик, триллер, прикл ...
  • [Трейлер] Железный человек 3 / Iron Man 3 (Шейн Блэк, Фантастика, боевик, 2 ...
  • [Трейлер] Железный человек 3 / Iron Man 3 (Шейн Блэк, фантастика, боевик, п ...
  • Информация
    Посетители, находящиеся в группе Гости, не могут оставлять комментарии к данной публикации.