вход на сайт

Имя пользователя :
Пароль :

Восстановление пароля Регистрация
Воображариум / Imaginaerum (Стобе Харью, Фэнтези, приключения, мюзикл, драма, 2012) [BDRip 720p, Дубляж, Оригинал (английский), Sub]
Рейтинг:
(голосов: 1)



[img]{THEME}/images/logopost.png[/img]



Воображариум / Imaginaerum
«Мир, в котором фантазии оживают»

Год выпуска: 2012
Страна: Канада, Финляндия
Производство: Caramel Film, Scene Nation...
Жанр: Фэнтези, приключения, мюзикл, драма

Режиссёр: Стобе Харью
В ролях: Марианн Фарли, Куинн Лорд, Фрэнсис З. МакКарти, Илка Вилли, Джоэнна Нойес, Кеянна Филдинг, Стефани Демерс, Рон Лиа, Хелен Робитейлл, Туомас Холопайнен

Перевод: Дубляж, Оригинал (английский)
Субтитры: Russian [Midnight)sky], English

Описание: Кто из нас в детстве не мечтал попасть в волшебную страну? В страну, где все возможно. Где исполняются самые несбыточные мечты, встречаются необыкновенные существа и происходит самое настоящее Волшебство. Теперь ваши мечты могут осуществиться! Не важно сколько вам лет. Не важно верите ли вы в говорящих снеговиков и в то, что люди могут летать. Просто приоткройте эту дверь и перед вами окажется Воображариум, где все возможно.

Релиз от:Качество: BDRip 720p | Сэмпл
Продолжительность: 01:25:54 час.

Формат: MKV
Видео кодек: x264
Аудио кодек: AC3, DTS
Видео: 1280x544 (2.35:1), 23.976 fps, x264 ~4 353 kbps avg, 0.261 bit/pixel
Аудио#1: 48 kHz, AC3 Dolby Digital, 3/2 (L,C,R,l,r) + LFE ch, ~448 kbps avg - (Дубляж)
Аудио#2: 48 kHz/16-bit, DTS, 3/2 (L,C,R,l,r) + LFE ch, ~1509.00 kbps avg - (Оригинал)

Дата премьеры (мир): 10 ноября 2012
Дата премьеры (РФ): 6 июня 2013, «Наше Кино»

MediaInfo: ▼General
Imaginaerum.2012.BDRip.720p.mkv
Format : Matroska
Format version : Version 4 / Version 2
File size : 3.86 GiB
Duration : 1h 25mn
Overall bit rate : 6 438 Kbps
Movie name : CINEMANIA.CC
Encoded date : UTC 2013-08-20 20:59:05
Writing application : mkvmerge v6.3.0 (You cant stop me!) built on Jun 28 2013 20:09:41
Writing library : libebml v1.3.0 + libmatroska v1.4.0

Video
ID : 1
Format : AVC
Format/Info : Advanced Video Codec
Format profile : [email protected]
Format settings, CABAC : Yes
Format settings, ReFrames : 10 frames
Codec ID : V_MPEG4/ISO/AVC
Duration : 1h 25mn
Bit rate : 4 353 Kbps
Width : 1 280 pixels
Height : 544 pixels
Display aspect ratio : 2.35:1
Frame rate mode : Constant
Frame rate : 23.976 fps
Color space : YUV
Chroma subsampling : 4:2:0
Bit depth : 8 bits
Scan type : Progressive
Bits/(Pixel*Frame) : 0.261
Stream size : 2.61 GiB (68%)
Title : CINEMANIA.CC
Writing library : x264 core 130 r2273 b3065e6
Encoding settings : cabac=1 / ref=10 / deblock=1:-3:-3 / analyse=0x3:0x113 / me=umh / subme=10 / psy=1 / psy_rd=1.00:0.00 / mixed_ref=1 / me_range=32 / chroma_me=1 / trellis=2 / 8x8dct=1 / cqm=0 / deadzone=21,11 / fast_pskip=0 / chroma_qp_offset=-2 / threads=12 / lookahead_threads=2 / sliced_threads=0 / nr=0 / decimate=0 / interlaced=0 / bluray_compat=0 / constrained_intra=0 / bframes=8 / b_pyramid=2 / b_adapt=2 / b_bias=0 / direct=3 / weightb=1 / open_gop=0 / weightp=2 / keyint=250 / keyint_min=23 / scenecut=40 / intra_refresh=0 / rc=crf / mbtree=0 / crf=15.3 / qcomp=0.50 / qpmin=0 / qpmax=69 / qpstep=4 / ip_ratio=1.40 / pb_ratio=1.30 / aq=1:0.90
Language : English
Default : Yes
Forced : No

Audio #1
ID : 2
Format : AC-3
Format/Info : Audio Coding 3
Mode extension : CM (complete main)
Format settings, Endianness : Big
Codec ID : A_AC3
Duration : 1h 25mn
Bit rate mode : Constant
Bit rate : 448 Kbps
Channel(s) : 6 channels
Channel positions : Front: L C R, Side: L R, LFE
Sampling rate : 48.0 KHz
Bit depth : 16 bits
Compression mode : Lossy
Stream size : 275 MiB (7%)
Title : Дубляж (Лицензия)
Language : Russian
Default : Yes
Forced : Yes

Audio #2
ID : 3
Format : DTS
Format/Info : Digital Theater Systems
Mode : 16
Format settings, Endianness : Big
Codec ID : A_DTS
Duration : 1h 25mn
Bit rate mode : Constant
Bit rate : 1 509 Kbps
Channel(s) : 6 channels
Channel positions : Front: L C R, Side: L R, LFE
Sampling rate : 48.0 KHz
Bit depth : 24 bits
Compression mode : Lossy
Stream size : 927 MiB (23%)
Lan
57e11d7a95337c8d27b223b1b60f4555c8d7f422Воображариум / Imaginaerum (Стобе Харью, Фэнтези, приключения, мюзикл, драма, 2012) [BDRip 720p, Дубляж, Оригинал (английский), Sub] Воображариум / Imaginaerum (Стобе Харью, Фэнтези, приключения, мюзикл, драма, 2012) [BDRip 720p, Дубляж, Оригинал (английский), Sub] " />

Аплоадер: Админ, дата: 21-08-2013, 12:48, торрент скачан: 359 раз

Понравилась раздача? Посмотрите эти:
  • Чемпионат Германии 2013-14 / 4-й тур / Preview / НТВ+ [30.08.2013, 720p, x2 ...
  • Воображариум / Imaginaerum (Стобе Харью, фэнтези, приключения, мюзикл, драм ...
  • Воображариум / Imaginaerum (Стобе Харью, фэнтези, приключения, мюзикл, драм ...
  • Воображариум / Imaginaerum (Стобе Харью, фэнтези, приключения, мюзикл, драм ...
  • Воображариум / Imaginaerum (Стобе Харью, Фэнтези, приключения, мюзикл, драм ...
  • Воображариум / Imaginaerum (Стобе Харью, Фэнтези, приключения, мюзикл, драм ...
  • Воображариум / Imaginaerum (Стобе Харью, Фэнтези, приключения, мюзикл, драм ...
  • Паркер / Parker (Тейлор Хэкфорд, Боевик, триллер, криминал, 2013) [BDRip 7 ...
  • Воображариум / Imaginaerum (Стобе Харью, мюзикл, фэнтези, драма, 2012) [HDR ...
  • [Трейлер] Воображариум / Imaginaerum (Стобе Харью, мюзикл, фэнтези, драма) ...
  • Жизнь Пи / Life Of Pi (Энг Ли, Драма, приключения, 2012) [BDRip 720p, Профе ...
  • Жизнь Пи / Life Of Pi (Энг Ли, Драма, приключения, 2012) [BDRip 1080p, Проф ...
  • Суррогат / The Sessions (Бен Луин, драма, 2012) [BDRip 720p, Профессиональн ...
  • Весенние надежды / Hope Springs (Дэвид Фрэнкел, Драма, мелодрама, комедия, ...
  • Толстяк на ринге / Here Comes the Boom (Фрэнк Корачи, Боевик, комедия, 201 ...
  • Черный дрозд / Deadfall (Штефан Руцовицки, Триллер, драма, криминал, 2012) ...
  • Проект X: Дорвались / Project X (Нима Нуризаде, комедия, 2012) [BDRip 720p, ...
  • «Весёлые» каникулы / Get the Gringo (Адриан Грюнберг, Боевик, комедия, 2012 ...
  • Ворон / The Raven (Джеймс МакТиг, Триллер, детектив, 2012) [BDRip 720p, Дуб ...
  • Цветы войны / Jin líng shí san chai (Чжан Имоу, драма, военный, история, 20 ...
  • Рок на века / Rock of Ages (Адам Шенкман, Мюзикл, драма, мелодрама, комедия ...
  • Супер Майк / Magic Mike (Стивен Содерберг, Драма, комедия, 2012) [BDRip 720 ...
  • На Дороге / On The Road (Уолтер Саллес, Драма, приключения, 2012) [BDRip 72 ...
  • Странная жизнь Тимоти Грина / The Odd Life of Timothy Green (Питер Хеджес, ...
  • Слова / The Words [EXTENDED] (Ли Стернтал, Драма, мелодрама, 2012) [BDRip 7 ...
  • Информация
    Посетители, находящиеся в группе Гости, не могут оставлять комментарии к данной публикации.