вход на сайт

Имя пользователя :
Пароль :

Восстановление пароля Регистрация
Железный человек 3 / Iron Man 3 (Шейн Блэк, Фантастика, боевик, приключения, 2013) [BDRip 720p, Дубляж, Оригинал (английский), Sub]
Рейтинг:
(голосов: 1)



[img]{THEME}/images/logopost.png[/img]



Железный человек 3 / Iron Man 3
«Герой будет сражен»

Год выпуска: 2013
Страна: США, Китай
Производство: Paramount Pictures, Marvel Studios Inc.
Жанр: Фантастика, боевик, приключения

Режиссёр: Шейн Блэк
В ролях: Роберт Дауни мл., Гвинет Пэлтроу, Дон Чидл, Гай Пирс, Бен Кингсли, Джеймс Бэдж Дэйл, Ребекка Холл, Тай Симпкинс, Уильям Сэдлер, Джон Фавро

Перевод: Дубляж, Оригинал (английский)
Субтитры: русские (форсированные, полные), английские (SDN, полные)

Описание: Когда мир Старка рушится на его глазах по вине неизвестных противников, Тони жаждет найти виновных и свести с ними счеты. Оказавшись в безвыходной ситуации, Старк может рассчитывать только на себя и свою изобретательность, чтобы защитить тех, кто ему дорог. Это становится настоящим испытанием для героя, которому придется не только сражаться с коварным врагом, но и разобраться в себе, чтобы найти ответ на вопрос, который давно его тревожит: что важнее - человек или костюм?



Качество: BDRip 720p |Сэмпл |
Продолжительность: 02:10:32 час.

Формат: MKV
Видео кодек: x264
Аудио кодек: AC3, DTS
Видео: 1280x528 (2.40:1), 23.976 fps, x264 ~8 500 kbps avg, 0.525 bit/pixel
Аудио#1: 48 kHz, AC3 Dolby Digital, 3/2 (L,C,R,l,r) + LFE ch, ~640 kbps avg - (Дубляж)
Аудио#2: 48 kHz/16-bit, DTS, 3/2 (L,C,R,l,r) + LFE ch, ~1509.00 kbps avg - (Оригинал) отдельно

Дата премьеры (мир): 18 апреля 2013
Дата премьеры (РФ): 2 мая 2013, «WDSSPR»

MediaInfo ▼
General
Unique ID : 199930986291474955273569204964363806180 (0x96694EAD3DF13B7C8F5F3CD78BCF25E4)
Complete name : E:/BDЖелезный.человек.3heleznyi.Chelovek.3.2013.BDRip.720p.mkv
Format : Matroska
Format version : Version 4 / Version 2
File size : 8.33 GiB
Duration : 2h 10mn
Overall bit rate : 9 140 Kbps
Encoded date : UTC 2013-08-21 12:32:05
Writing application : mkvmerge v6.3.0 (You cant stop me!) built on Jun 28 2013 20:09:41
Writing library : libebml v1.3.0 + libmatroska v1.4.0
Attachment : Yes

Video
ID : 1
Format : AVC
Format/Info : Advanced Video Codec
Format profile : [email protected]
Format settings, CABAC : Yes
Format settings, ReFrames : 4 frames
Codec ID : V_MPEG4/ISO/AVC
Duration : 2h 10mn
Bit rate : 8 500 Kbps
Width : 1 280 pixels
Height : 528 pixels
Display aspect ratio : 2.40:1
Frame rate : 23.976 fps
Color space : YUV
Chroma subsampling : 4:2:0
Bit depth : 8 bits
Scan type : Progressive
Bits/(Pixel*Frame) : 0.525
Stream size : 7.59 GiB (91%)
Writing library : x264 core 132 r2310 76a5c3a
Encoding settings : cabac=1 / ref=4 / deblock=1:-2:-2 / analyse=0x3:0x113 / me=umh / subme=10 / psy=1 / psy_rd=1.00:0.15 / mixed_ref=1 / me_range=32 / chroma_me=1 / trellis=2 / 8x8dct=1 / cqm=0 / deadzone=21,11 / fast_pskip=0 / chroma_qp_offset=-3 / threads=3 / lookahead_threads=1 / sliced_threads=0 / nr=0 / decimate=0 / interlaced=0 / bluray_compat=0 / constrained_intra=0 / bframes=6 / b_pyramid=2 / b_adapt=2 / b_bias=0 / direct=3 / weightb=1 / open_gop=0 / weightp=2 / keyint=240 / keyint_min=24 / scenecut=40 / intra_refresh=0 / rc_lookahead=60 / rc=2pass / mbtree=0 / bitrate=8500 / ratetol=1.0 / qcomp=0.65 / qpmin=0 / qpmax=69 / qpstep=4 / cplxblur=20.0 / qblur=0.5 / vbv_maxrate=40000 / vbv_bufsize=30000 / nal_hrd=none / ip_ratio=1.40 / pb_ratio=1.30 / aq=1:0.80
Default : Yes
Forced : No

Audio
ID : 2
Format : AC-3
Format/Info : Audio Coding 3
Mode extension : CM (complete main)
Codec ID : A_AC3
Duration : 2h 10mn
Bit rate mode : Constant
Bit rate : 640 Kbps
Channel(s) : 6 channels
Channel positions : Front: L C R, Side: L R, LFE
Sampling rate : 48.0 KHz
Bit depth : 16 bits
Compression mode : Lossy
Stream size : 598 MiB (7%)
Title : Дубляж
Language : Russian
Default : Yes
Forced : No

Text #1
ID : 3
Format : UTF-8
Codec ID : S_TEXT/UTF8
Codec ID/Info : UTF-8 Plain Text
Title : Русские форсированные
Language : Russian
Default : Yes
Forced : No

Text #2
ID : 4
Format :
96e8fe6e977d9cfb34c0e11552106c31713b97ffЖелезный человек 3 / Iron Man 3 (Шейн Блэк, Фантастика, боевик, приключения, 2013) [BDRip 720p, Дубляж, Оригинал (английский), Sub] Железный человек 3 / Iron Man 3 (Шейн Блэк, Фантастика, боевик, приключения, 2013) [BDRip 720p, Дубляж, Оригинал (английский), Sub] " />

Аплоадер: Админ, дата: 22-08-2013, 02:30, торрент скачан: 359 раз

Понравилась раздача? Посмотрите эти:
  • Железный человек 3 / Iron Man 3 (Шейн Блэк, Фантастика, боевик, приключения ...
  • Железный человек 3 / Iron Man 3 (Шейн Блэк, Фантастика, боевик, приключения ...
  • [3D] Железный человек 3 / Iron Man 3 (Шейн Блэк, Фантастика, боевик, приклю ...
  • [3D] Железный человек 3 / Iron Man 3 (Шейн Блэк, Фантастика, боевик, приклю ...
  • Железный человек 3 / Iron Man 3 (Шейн Блэк, Фантастика, боевик, приключения ...
  • Железный человек 3 / Iron Man 3 (Шейн Блэк, фантастика, боевик, приключения ...
  • [3D] Железный человек 3 / Iron Man 3 (Шейн Блэк, Фантастика, боевик, приклю ...
  • Железный человек 3 / Iron Man 3 (Шейн Блэк, Фантастика, боевик, приключения ...
  • Железный человек 3 / Iron Man 3 (Шейн Блэк, Фантастика, боевик, приключения ...
  • Железный человек 3 / Iron Man 3 (Шейн Блэк, фантастика, боевик, триллер, 20 ...
  • Железный человек 3 / Iron Man 3 (Шейн Блэк, Фантастика, боевик, приключения ...
  • Железный человек 3 / Iron Man 3 (Шейн Блэк, Фантастика, боевик, приключения ...
  • Железный человек 3 / Iron Man 3 (Шейн Блэк, Фантастика, боевик, приключения ...
  • Железный человек 3 / Iron Man 3 (Шейн Блэк, Фантастика, боевик, приключения ...
  • Железный человек 3 / Iron Man 3 (Шейн Блэк, Фантастика, боевик, приключения ...
  • Железный человек 3 / Iron Man 3 (Шейн Блэк, фантастика, боевик, триллер, 20 ...
  • Железный человек 3 / Iron Man 3 (Шейн Блэк, Фантастика, боевик, приключения ...
  • Железный человек 3 / Iron Man 3 (Шейн Блэк, фантастика, боевик, триллер, 20 ...
  • Железный человек 3 / Iron Man 3 (Шейн Блэк, фантастика, боевик, триллер, 20 ...
  • [Доп. материалы] Железный человек 3 / Iron Man 3 (Шейн Блэк, Фантастика, бо ...
  • Информация
    Посетители, находящиеся в группе Гости, не могут оставлять комментарии к данной публикации.