вход на сайт

Имя пользователя :
Пароль :

Восстановление пароля Регистрация
Элитное общество / The Bling Ring (София Коппола, драма, криминал, 2013) [BDRip 1080p, Дублированный, оригинал (английский)]
Рейтинг:
(голосов: 1)



[img]{THEME}/images/logopost.png[/img]



Элитное общество / The Bling Ring
«Где украсть красивую жизнь?.»
Год выпуска: 2013
Страна: США, Великобритания, Франция, Германия, Япония
Производство: Tohokushinsha Film Corp
Жанр: драма, криминал

Режиссёр: София Коппола
В ролях: Израэль Бруссар, Кэти Чанг, Таисса Фармига, Клер Элис Жюльен, Джорджия Рок, Эмма Уотсон, Лесли Манн, Карлос Миранда, Гэвин Россдэйл, Стэйси Эдвардс

Перевод: Дублированный, оригинал (английский)
Субтитры: Нет

Описание: В поисках адреналина и приключений пятеро отчаянных подростков ради прикола стали навещать богатые особняки в окрестностях Голливуда. Наведываясь в гости к Линдси Лохан, Орландо Блуму, Пэрис Хилтон и другим голливудским звездам, девушки, конечно, больше интересовались дизайнерской одеждой и драгоценностями, а юноши — просто деньгами. Совершив десять краж со взломом, ребятки награбили больше трех миллионов долларов…




премьера (мир): 16 мая 2013
премьера (РФ): 4 июля 2013, «Парадиз»

Качество: BDRip 1080p
Продолжительность: 01:30:33

Формат: MKV
Видео кодек: AVC
Аудио кодек: AC-3
Cвойства видео: 1920х1036 (1.85:1), 23.976 кадр/сек, AVC, x264, 11.2 Мбит/сек, 0.235 Бит/(Пиксели*Кадры), 2-pass
Свойства аудио RU: 48 kHz, AC3, 3/2 (L,C,R,l,r) + LFE ch, ~384.00 kbps avg |Дубляж, Blu-Ray RUS|
Свойства аудио EN: 48 kHz, AC3, 3/2 (L,C,R,l,r) + LFE ch, ~640.00 kbps avgТех. данные ▼Format : Matroska
Format version : Version 2
File size : 7.74 GiB
Duration : 1h 30mn
Overall bit rate : 12.2 Mbps
Movie name : Элитное общество.(2013).BDRip.1080p.NoLimits-Team
Encoded date : UTC 2013-09-06 06:00:10
Writing application : mkvmerge v5.8.0 (No Sleep / Pillow) built on Sep 2 2012 15:37:04
Writing library : libebml v1.2.3 + libmatroska v1.3.0

Video
ID : 1
Format : AVC
Format/Info : Advanced Video Codec
Format profile : [email protected]
Format settings, CABAC : Yes
Format settings, ReFrames : 4 frames
Codec ID : V_MPEG4/ISO/AVC
Duration : 1h 30mn
Bit rate : 11.2 Mbps
Width : 1 920 pixels
Height : 1 036 pixels
Display aspect ratio : 1.85:1
Frame rate mode : Constant
Frame rate : 23.976 fps
Color space : YUV
Chroma subsampling : 4:2:0
Bit depth : 8 bits
Scan type : Progressive
Bits/(Pixel*Frame) : 0.235
Stream size : 6.94 GiB (90%)
Title : Элитное общество.(2013).BDRip.1080p.NoLimits-Team
Writing library : x264 core 138 r2358 9e941d1
Encoding settings : cabac=1 / ref=4 / deblock=1:0:0 / analyse=0x3:0x113 / me=umh / subme=11 / psy=1 / psy_rd=1.00:0.15 / mixed_ref=1 / me_range=32 / chroma_me=1 / trellis=2 / 8x8dct=1 / cqm=0 / deadzone=21,11 / fast_pskip=0 / chroma_qp_offset=-3 / threads=6 / lookahead_threads=1 / sliced_threads=0 / nr=0 / decimate=0 / interlaced=0 / bluray_compat=0 / constrained_intra=0 / bframes=5 / b_pyramid=2 / b_adapt=2 / b_bias=0 / direct=3 / weightb=1 / open_gop=0 / weightp=2 / keyint=240 / keyint_min=23 / scenecut=40 / intra_refresh=0 / rc=2pass / mbtree=0 / bitrate=11229 / ratetol=1.0 / qcomp=0.60 / qpmin=0 / qpmax=69 / qpstep=4 / cplxblur=20.0 / qblur=0.5 / ip_ratio=1.40 / pb_ratio=1.30 / aq=1:0.95
Language : English
Default : Yes
Forced : No

Audio #1
ID : 2
Format : AC-3
Format/Info : Audio Coding 3
Mode extension : CM (complete main)
Format settings, Endianness : Big
Codec ID : A_AC3
Duration : 1h 30mn
Bit rate mode : Constant
Bit rate : 384 Kbps
Channel(s) : 6 channels
Channel positions : Front: L C R, Side: L R, LFE
Sampling rate : 48.0 KHz
Bit depth : 16 bits
Compression mode : Lossy
Stream size : 249 MiB (3%)
Title : Дублированый
Language : Russian
Default : Yes
Forced : No

Audio #2
ID : 3
Format : AC-3
Format/Info : Audio Coding 3
Mode extension : CM (complete main)
Format settings, Endianness : Big
Codec ID : A_AC3
Duration : 1h 30mn
Bit rate mode : Constant
Bit rate : 640 Kbps
Channel(s) : 6 channels
Channel positions : Front: L C R, Side: L R, LFE
Sampling rate : 48.0 KHz
Bit depth : 16 bits
Compression mode : Lossy
Stream size : 415 MiB (5%)
T
93db473c85fb692060942397069c96d9819f22f8Элитное общество / The Bling Ring (София Коппола, драма, криминал, 2013) [BDRip 1080p, Дублированный, оригинал (английский)] Элитное общество / The Bling Ring (София Коппола, драма, криминал, 2013) [BDRip 1080p, Дублированный, оригинал (английский)] " />

Аплоадер: Админ, дата: 6-09-2013, 15:15, торрент скачан: 359 раз

Понравилась раздача? Посмотрите эти:
  • Два ствола / 2 Guns (Бальтасар Кормакур, боевик, триллер, драма, комедия, к ...
  • Армагеддец / The Worlds End (Эдгар Райт, фантастика, боевик, комедия, 2013) ...
  • Каньоны / The Canyons (Пол Шредер, триллер, драма, 2013) [BDRip AVC, Дублир ...
  • Грязь / Filth (Джон С. Бейрд, криминал, драма, комедия, 2013) [BDRip-AVC, ...
  • Погнали! / Getaway (Кортни Соломон, боевик, криминал, 2013) [BDRip 720p, Пр ...
  • Ананасовый экспресс. Сижу, курю / Pineapple Express [Theatrical Cut] (Дэвид ...
  • Бэндслэм / Bandslam (Тодд Графф,Комедия, Мелодрама, 2009) [BDRip 1080p, Про ...
  • Пастырь / Priest (Скотт Чарльз Стюарт, ужасы, фантастика, боевик, триллер, ...
  • Элитное общество / The Bling Ring (София Коппола, Драма, криминал, 2013) [D ...
  • Элитное общество / The Bling Ring (София Коппола, Драма, криминал, 2013) [B ...
  • Элитное общество / The Bling Ring (София Коппола, драма, криминал, 2013) [B ...
  • Элитное общество / The Bling Ring (София Коппола, драма, криминал, 2013) BD ...
  • Элитное общество / The Bling Ring (София Коппола, Драма, криминал, 2013) [H ...
  • Элитное общество / The Bling Ring (София Коппола, Драма, криминал, 2013) [H ...
  • Элитное общество / The Bling Ring (София Коппола, драма, криминал, 2013) [H ...
  • Четвертый вид / The Fourth Kind (Олатунде Осунсанми, ужасы, фантастика, 200 ...
  • Хроника / Chronicle (Джошуа Транк, фантастика, боевик, триллер, драма, 2012 ...
  • Погоня / Abduction (Джон Синглтон, боевик, триллер, драма, детектив, 2011) ...
  • Обливион / Oblivion (Джозеф Косински, фантастика, боевик, триллер, приключе ...
  • Соучастник / Collateral (Майкл Манн, Триллер, драма, криминал, 2004) [BDRip ...
  • Жизнь Пи / Life Of Pi (Энг Ли, Драма, приключения, 2012) [BDRip 1080p, Проф ...
  • Черный дрозд / Deadfall (Штефан Руцовицки, Триллер, драма, криминал, 2012) ...
  • Патруль / End of Watch (Дэвид Эйр, Триллер, драма, криминал, 2012) [BDRip-A ...
  • Супер Майк / Magic Mike (Стивен Содерберг, Драма, комедия, 2012) [BDRip 108 ...
  • Патруль / End of Watch (Дэвид Эйр, Триллер, драма, криминал, 2012) [BDRip 7 ...
  • Информация
    Посетители, находящиеся в группе Гости, не могут оставлять комментарии к данной публикации.