вход на сайт

Имя пользователя :
Пароль :

Восстановление пароля Регистрация
Zомби каникулы (Кирилл Кемниц, Ужасы, триллер, комедия, 2013) [BDRip 720p, Не требуется]
Рейтинг:
(голосов: 1)



[img]{THEME}/images/logopost.png[/img]



Zомби каникулы
«НеКромантическая комедия»

Год выпуска: 2013
Страна: Россия
Производство: New Wave Productions
Жанр: Ужасы, триллер, комедия

Режиссёр: Кирилл Кемниц
В ролях: Юлия Волкова, Михаил Ефремов, Антон Зиновьев, Ирина Хануник-Ромбальская, Дарья Торчилина, Александр Ефремов, Ольга Доценко, Александр Левенчук, Виолетта Нестерович, Валерий Зеленский

Перевод: Не требуется
Субтитры: Отсутствуют

Описание: Группа молодых людей собирается на главную тусовку лета. Как и полагается, подготовка идёт полным ходом, но никто не догадывается, что судьба готовит им совершенно другую программу на афтепати. Оказавшись в эпицентре зомбоапокалипсиса, друзья обнаруживают, что «ходячие» охотятся только за теми, кто испытывает страх…



Качество: BDRip 720p |Сэмпл |
Продолжительность: 01:35:06 час.

Формат: MKV
Видео кодек: x264
Аудио кодек: AC3
Видео: 1280x688 (1.85:1), 23.976 fps, x264 ~5 340 kbps avg, 0.253 bit/pixel
Аудио: 48 kHz, AC3 Dolby Digital, 3/2 (L,C,R,l,r) + LFE ch, ~640 kbps avg

Дата премьеры (мир): 6 апреля 2013
Дата премьеры (РФ): 15 августа 2013, «Top Film Distribution»

MediaInfo ▼
Format : Matroska
Format version : Version 4 / Version 2
File size : 3.97 GiB
Duration : 1h 35mn
Overall bit rate : 5 980 Kbps
Encoded date : UTC 2013-09-08 01:42:36
Writing application : mkvmerge v6.1.0 (Old Devil) built on Mar 4 2013 09:10:42
Writing library : libebml v1.3.0 + libmatroska v1.4.0

Video
ID : 1
Format : AVC
Format/Info : Advanced Video Codec
Format profile : [email protected]
Format settings, CABAC : Yes
Format settings, ReFrames : 9 frames
Codec ID : V_MPEG4/ISO/AVC
Duration : 1h 35mn
Bit rate : 5 340 Kbps
Width : 1 280 pixels
Height : 688 pixels
Display aspect ratio : 1.85:1
Frame rate : 23.976 fps
Color space : YUV
Chroma subsampling : 4:2:0
Bit depth : 8 bits
Scan type : Progressive
Bits/(Pixel*Frame) : 0.253
Stream size : 3.47 GiB (87%)
Writing library : x264 core 130 r2273 b3065e6
Encoding settings : cabac=1 / ref=9 / deblock=1:-3:-3 / analyse=0x3:0x133 / me=umh / subme=11 / psy=1 / psy_rd=1.00:0.20 / mixed_ref=1 / me_range=32 / chroma_me=1 / trellis=2 / 8x8dct=1 / cqm=0 / deadzone=21,11 / fast_pskip=0 / chroma_qp_offset=-3 / threads=12 / lookahead_threads=2 / sliced_threads=0 / nr=0 / decimate=0 / interlaced=0 / bluray_compat=0 / constrained_intra=0 / bframes=8 / b_pyramid=2 / b_adapt=2 / b_bias=0 / direct=3 / weightb=1 / open_gop=0 / weightp=2 / keyint=250 / keyint_min=23 / scenecut=40 / intra_refresh=0 / rc_lookahead=60 / rc=2pass / mbtree=1 / bitrate=5340 / ratetol=1.0 / qcomp=0.60 / qpmin=0 / qpmax=69 / qpstep=4 / cplxblur=20.0 / qblur=0.5 / ip_ratio=1.40 / aq=1:1.00
Default : Yes
Forced : No

Audio
ID : 2
Format : AC-3
Format/Info : Audio Coding 3
Mode extension : CM (complete main)
Format settings, Endianness : Big
Codec ID : A_AC3
Duration : 1h 35mn
Bit rate mode : Constant
Bit rate : 640 Kbps
Channel(s) : 6 channels
Channel positions : Front: L C R, Side: L R, LFE
Sampling rate : 48.0 KHz
Bit depth : 16 bits
Compression mode : Lossy
Stream size : 435 MiB (11%)
Default : Yes
Forced : No

Menu
00:00:00.000 : ru:00:00:00.000
00:04:02.701 : ru:00:04:02.701
00:11:07.458 : ru:00:11:07.458
00:17:54.323 : ru:00:17:54.323
00:24:02.566 : ru:00:24:02.566
00:29:12.751 : ru:00:29:12.751
00:37:03.513 : ru:00:37:03.513
00:43:38.449 : ru:00:43:38.449
00:48:27.321 : ru:00:48:27.321
00:53:40.134 : ru:00:53:40.134
00:59:47.083 : ru:00:59:47.083
01:05:02.690 : ru:01:05:02.690
01:11:05.761 : ru:01:11:05.761
01:18:26.702 : ru:01:18:26.702
01:23:19.411 : ru:01:23:19.411
01:30:25.503 : ru:01:30:25.503







3c11d39159bdb5ddb53e3298d7913459013c8e64Zомби каникулы (Кирилл Кемниц, Ужасы, триллер, комедия, 2013) [BDRip 720p, Не требуется] Zомби каникулы (Кирилл Кемниц, Ужасы, триллер, комедия, 2013) [BDRip 720p, Не требуется] " />

Аплоадер: Админ, дата: 8-09-2013, 17:40, торрент скачан: 359 раз

Понравилась раздача? Посмотрите эти:
  • Чемпионат Англии 2013-2014 / Английский акцент / 16-й тур / Обзор / НТВ+ [1 ...
  • Чемпионат Англии 2013-2014 / Английский акцент / Обзор 17 тура / НТВ+ [футб ...
  • Каньоны / The Canyons (Пол Шредер, триллер, драма, 2013) [BDRip AVC, Дублир ...
  • FLO / NRG [2012, Pop, Dance, MasterRip]
  • [3D] Zомби каникулы (Кирилл Кемниц, Ужасы, триллер, комедия, 2013) [BDRip 1 ...
  • [3D] Zомби каникулы (Кирилл Кемниц, Ужасы, триллер, комедия, 2013) [BDRip 1 ...
  • Zомби каникулы (Кирилл Кемниц, Ужасы, триллер, комедия, 2013) [BDRip 1080p, ...
  • Zомби каникулы (Кирилл Кемниц, Ужасы, триллер, комедия, 2013) [HDRip, Не тр ...
  • Zомби каникулы (Кирилл Кемниц, Ужасы, триллер, комедия, 2013) [BDRip, Не тр ...
  • Властелин любви / The Look of Love (Майкл Уинтерботтом, драма, комедия, био ...
  • Чемпионат Англии 2013-14 / Английский акцент / 2-й тур / Обзор / НТВ+ [25. ...
  • Четвертый вид / The Fourth Kind (Олатунде Осунсанми, ужасы, фантастика, 200 ...
  • Экзамен для двоих / Admission (Пол Вайц, драма, мелодрама, комедия, 2013) [ ...
  • Чемпионат Франции 2013-2014 / 1-й тур / Обзор Матчей / Спорт 1 [12.08.2013, ...
  • Кубок Англии 2012-2013 / Превью финала / Спорт 1 [Футбол, 09.05.2013, 720p, ...
  • UFC The Ultimate 100 Knockouts - PPV [MMA,2013, HDTVRip 720p]
  • Чемпионат Мира по хоккею 2013 / Четвертьфинал / Россия - США / 1 HD [Хокке ...
  • UFC - Best Of 2012 Year In Review[MMA,2013, BDRip 540p]
  • О чём молчат девушки (Карен Оганесян, Комедия, 2013) [BDRip-AVC, Не требует ...
  • «Весёлые» каникулы / Get the Gringo (Адриан Грюнберг, Боевик, комедия, 2012 ...
  • Ворон / The Raven (Джеймс МакТиг, Триллер, детектив, 2012) [BDRip 720p, Дуб ...
  • Пираньи 3DD / Piranha 3DD (Джон Гулажер, ужасы, триллер, комедия, 2012) [BD ...
  • Явление / The Apparition (Тодд Линкольн, Ужасы, триллер, 2012) [BDRip 720p, ...
  • Mylene Farmer / Du Temps [2011, Pop, HDTVRip]
  • Mylene Farmer / Bleu Noir [2011, Pop, HDTVRip]
  • Информация
    Посетители, находящиеся в группе Гости, не могут оставлять комментарии к данной публикации.