вход на сайт

Имя пользователя :
Пароль :

Восстановление пароля Регистрация
Копы в юбках / The Heat [UNRATED] (Пол Фиг, комедия, криминал, боевик, детектив, 2013) [BD-Remux 1080p, Полное (дублирование) русский, украинский, оригинал (английский), Sub]
Рейтинг:
(голосов: 1)



[img]{THEME}/images/logopost.png[/img]



Копы в юбках / The Heat [UNRATED]
«Крепкие булки, храброе сердце!»


Год выпуска: 2013 год
Страна: США
Производство: Twentieth Century Fox Film Corporation, Chernin Entertainment, Dune Entertainment, Dune Entertainment III
Жанр: Комедия, криминал, боевик, детектив
Режиссёр: Пол Фиг
В ролях: Сандра Буллок, Мелисса МакКарти, Демиан Бишир, Марлон Уайанс, Майкл Рапапорт, Джейн Куртин, Спокен Ризонс, Дэн Баккедаль, Таран Киллэм, Майкл МакДональд
Перевод: Полное (дублирование) русский, украинский, оригинал (английский)
Субтитры: Русские, украинские, английские
Описание: Агенту ФБР и бостонскому полицейскому доверено ответственное задание: выйти на след и обезвредить опасного преступника. И это даже хорошо, что копы — женщины, ведь бандит-то — русский. А непредсказуемости русской смекалки можно противопоставить только столь же непредсказуемую женскую логику.



Дата премьеры (мир): 27 июня 2013
Дата премьеры (РФ): 4 июля 2013, «Двадцатый Век Фокс СНГ»

MediaInfo ▼Общее
Уникальный идентификатор : 224586816338203975061407703007446221897 (0xA8F5D8F3CBD1E34E9F128F8C65E4C449)
Полное имя : D:ФильмыThe.Heat.2013.x264.BDRemux(1080p).mkv
Формат : Matroska
Версия формата : Version 2
Размер файла : 22,3 Гбайт
Продолжительность : 2 ч. 0 м.
Режим общего битрейта : Переменный
Общий поток : 26,6 Мбит/сек
Название фильма : Kopy.v.ubkah.2013.D.BDRip.h264.
Дата кодирования : UTC 2013-10-29 22:31:26
Программа кодирования : mkvmerge v6.3.0 (You cant stop me!) built on Jun 28 2013 20:09:41
Библиотека кодирования : libebml v1.3.0 + libmatroska v1.4.0

Видео
Идентификатор : 1
Формат : AVC
Формат/Информация : Advanced Video Codec
Профиль формата : [email protected]
Параметр CABAC формата : Да
Параметр ReFrames формата : 4 кадра
Идентификатор кодека : V_MPEG4/ISO/AVC
Продолжительность : 2 ч. 0 м.
Вид битрейта : Переменный
Максимальный битрейт : 31,0 Мбит/сек
Ширина : 1920 пикселей
Высота : 1080 пикселей
Соотношение сторон : 16:9
Режим частоты кадров : Постоянный
Частота кадров : 23,976 кадра/сек
Цветовое пространство : YUV
Субдискретизация насыщенности : 4:2:0
Битовая глубина : 8 бит
Тип развёртки : Прогрессивная
Default : Да
Forced : Нет

Аудио #1
Идентификатор : 2
Формат : DTS
Формат/Информация : Digital Theater Systems
Режим : 16
Параметр Endianness формата : Big
Идентификатор кодека : A_DTS
Продолжительность : 2 ч. 0 м.
Вид битрейта : Постоянный
Битрейт : 768 Кбит/сек
Каналы : 6 каналов
Расположение каналов : Front: L C R, Side: L R, LFE
Частота : 48,0 КГц
Битовая глубина : 24 бит
Метод сжатия : С потерями
Размер потока : 661 Мбайт (3%)
Заголовок : BD EUR 768
Язык : Russian
Default : Да
Forced : Нет

Аудио #2
Идентификатор : 3
Формат : AC-3
Формат/Информация : Audio Coding 3
Расширение режима : CM (complete main)
Параметр Endianness формата : Big
Идентификатор кодека : A_AC3
Продолжительность : 2 ч. 0 м.
Вид битрейта : Постоянный
Битрейт : 448 Кбит/сек
Каналы : 6 каналов
Расположение каналов : Front: L C R, Side: L R, LFE
Частота : 48,0 КГц
Битовая глубина : 16 бит
Метод сжатия : С потерями
Размер потока : 386 Мбайт (2%)
Заголовок : BD EUR 448
Язык : Russian
Default : Нет
Forced : Нет

Аудио #3
Идентификатор : 4
Формат : AC-3
Формат/Информация : Audio Coding 3
Расширение режима : CM (complete main)
Параметр Endianness формата : Big
Идентификатор кодека : A_AC3
Продолжительность : 2 ч. 0 м.
Вид битрейта : Постоянный
Битрейт : 448 Кбит/сек
Каналы : 6 каналов
Расположение каналов : Front: L C R, Side: L R, LFE
Частота : 48,0 КГц
Битовая глубина : 16 бит
Метод сжатия : С потерями
Размер потока : 386 Мбайт (2%)
Заголовок : BD EUR 448
Язык : Ukrainian
Default : Нет
Forced : Нет

Аудио #4
Идентификатор : 5
Формат : DTS
Формат/Информация : Digital Theater Systems
Профиль формата : MA / Core
Режим : 16
Параметр Endianness формата : Big
Идентификатор кодека : A_DTS
Продолжительность : 2 ч. 0 м.
Вид битрейта : Переменный
Битрейт : Неизв
b06ced62ac9bab2882605ae700f92672494f6830Копы в юбках / The Heat [UNRATED] (Пол Фиг, комедия, криминал, боевик, детектив, 2013) [BD-Remux 1080p, Полное (дублирование) русский, украинский, оригинал (английский), Sub] Копы в юбках / The Heat [UNRATED] (Пол Фиг, комедия, криминал, боевик, детектив, 2013) [BD-Remux 1080p, Полное (дублирование) русский, украинский, оригинал (английский), Sub] " />

Аплоадер: Админ, дата: 30-10-2013, 20:55, торрент скачан: 359 раз

Понравилась раздача? Посмотрите эти:
  • Географ глобус пропил (Александр Велединский, Драма, 2013) [BDRemux 1080p , ...
  • Va-банк / Runner Runner (Брэд Фурман, триллер, драма, криминал, 2013) [BDRe ...
  • Погнали! / Getaway (Кортни Соломон, боевик, криминал, 2013) [BDRip 1080p, П ...
  • Мы - Миллеры [Расширенная версия] / Were the Millers [Extended Cut] (Роусон ...
  • Копы в юбках / The Heat [Unrated] (Пол Фиг, Комедия, криминал, боевик, дет ...
  • Заклятие / The Conjuring (Джеймс Ван, ужасы, триллер, 2013) [BDRip 1080p, Д ...
  • Копы в юбках / The Heat [UNRATED] (Пол Фиг, комедия, криминал, боевик, дете ...
  • 21 и больше / 21 & Over (Джон Лукас, Скотт Мур, Комедия, 2013) [BD-Remux 10 ...
  • Поймай толстуху, если сможешь [Театральная версия] / Identity Thief [Theatr ...
  • G.I. Joe: Бросок кобры 2 [Театральная версия] / G.I. Joe: Retaliation [Thea ...
  • Падение Олимпа / Olympus Has Fallen (Антуан Фукуа, Боевик, триллер, 2013) [ ...
  • Эскадрилья "Лафайет" / Flyboys (Тони Билл, Боевик, драма, мелодрама, приклю ...
  • Другой мир: Пробуждение / Underworld: Awakening (Манс Марлинд, Бьёрн Стейн, ...
  • Аноним / Anonymous (Роланд Эммерих / Roland Emmerich, триллер, драма, 2011) ...
  • Защитник / Safe (Боаз Якин, Боевик, криминал, 2012) [BD-Remux 1080p [USA Tr ...
  • Диктатор / The Dictator (Ларри Чарльз, Комедия, 2012) [BD-Remux 1080p, Дубл ...
  • Счастливчик / The Lucky One (Скотт Хикс, Драма, мелодрама, 2012) [BD-Remux ...
  • Сид, инструкция по выживанию / Surviving Sid (Гален Т. Чу, Карен Дишер, мул ...
  • Средь бела дня / The Cold Light of Day (Мабрук Эль Мекри, Боевик, триллер, ...
  • Белоснежка и охотник [Расширенная версия] / Snow White and the Huntsman [U ...
  • Ищу друга на конец света / Seeking a Friend for the End of the World (Лорен ...
  • Супер Майк / Magic Mike (Стивен Содерберг, Драма, комедия, 2012) [BD-Remux ...
  • Папа-Досвидос [Театральная версия] / Thats My Boy [Theatrical Cut] (Шон Анд ...
  • Эволюция Борна / The Bourne Legacy (Тони Гилрой, боевик, триллер, детектив, ...
  • Сдохни, Джон Такер / John Tucker Must Die (Бетти Томас, мелодрама, комедия, ...
  • Информация
    Посетители, находящиеся в группе Гости, не могут оставлять комментарии к данной публикации.