вход на сайт

Имя пользователя :
Пароль :

Восстановление пароля Регистрация
Копы в юбках / The Heat [UNRATED] (Пол Фиг, комедия, криминал, боевик, детектив, 2013) [BDRip 720p, Дублированный, Украинский, Оригинал (Английский), субтитры]
Рейтинг:
(голосов: 1)



[img]{THEME}/images/logopost.png[/img]



Копы в юбках / The Heat [UNRATED]
«Крепкие булки, храброе сердце!»
Год выпуска: 2013
Страна: США
Производство: Twentieth Century Fox Film Corporation, Chernin Entertainment, Dune Entertainment
Жанр: комедия, криминал, боевик, детектив

Режиссёр: Пол Фиг
В ролях: Сандра Буллок, Мелисса МакКарти, Демиан Бишир, Марлон Уайанс, Майкл Рапапорт, Джейн Куртин, Спокен Ризонс, Дэн Баккедаль, Таран Киллэм, Майкл МакДональд

Перевод: Дублированный, Украинский, Оригинал (Английский)
Субтитры: Русские, украинские, английские

Описание: Агенту ФБР и бостонскому полицейскому доверено ответственное задание: выйти на след и обезвредить опасного преступника. И это даже хорошо, что копы — женщины, ведь бандит-то — русский. А непредсказуемости русской смекалки можно противопоставить только столь же непредсказуемую женскую логику.



премьера (мир):27 июня 2013
премьера (РФ):4 июля 2013, «Двадцатый Век Фокс СНГ»


Качество: BDRip 720p
Продолжительность: 02:00:20

Формат: MKV
Видео кодек: H.264
Аудио кодек: AC3, DTS
Видео: 1280x534 (2.40:1), 23,976 fps, H.264 ~4 448 kbps avg, 0.271 bit/pixel
Аудио#1: 48 kHz, AC3, 6 ch, ~448.00 kbps avg Russian
Аудио#2: 48 kHz, DTS, 6 ch, ~768.00 kbps avg Russian
Аудио#3: 48 kHz, AC3, 6 ch, ~448.00 kbps avg Ukrainian
Аудио#4: 48 kHz, DTS, 6 ch, ~1509.00 kbps avg English
Media Info ▼Общее
Уникальный идентификатор : 202427178263522313697670369168817072358 (0x984A0E71617951029A11EB90229B28E6)
Полное имя : C:1The.Heat.2013.UNRATEDThe.Heat.2013.UNRATED.BluRay.720p.DTS.x264-CHD.mkv
Формат : Matroska
Версия формата : Version 2
Размер файла : 6,41 Гбайт
Продолжительность : 2 ч. 0 м.
Общий поток : 7626 Кбит/сек
Дата кодирования : UTC 2013-10-29 21:53:40
Программа кодирования : mkvmerge v6.3.0 (You cant stop me!) built on Jun 28 2013 20:09:41
Библиотека кодирования : libebml v1.3.0 + libmatroska v1.4.0

Видео
Идентификатор : 1
Формат : AVC
Формат/Информация : Advanced Video Codec
Профиль формата : [email protected]
Параметр CABAC формата : Да
Параметр ReFrames формата : 10 кадров
Идентификатор кодека : V_MPEG4/ISO/AVC
Продолжительность : 2 ч. 0 м.
Битрейт : 4448 Кбит/сек
Ширина : 1280 пикселей
Высота : 534 пикселя
Соотношение сторон : 2,40:1
Режим частоты кадров : Постоянный
Частота кадров : 23,976 кадра/сек
Цветовое пространство : YUV
Субдискретизация насыщенности : 4:2:0
Битовая глубина : 8 бит
Тип развёртки : Прогрессивная
Бит/(Пиксели*Кадры) : 0.271
Размер потока : 3,62 Гбайт (56%)
Заголовок : The.Heat.2013.UNRATED.BluRay.720p.DTS.x264-CHD
Библиотека кодирования : x264 core 135 r2345 f0c1c53
Настройки программы : cabac=1 / ref=10 / deblock=1:-3:-3 / analyse=0x3:0x113 / me=umh / subme=10 / psy=1 / psy_rd=1.00:0.05 / mixed_ref=1 / me_range=32 / chroma_me=1 / trellis=2 / 8x8dct=1 / cqm=0 / deadzone=21,11 / fast_pskip=0 / chroma_qp_offset=-2 / threads=8 / lookahead_threads=1 / sliced_threads=0 / nr=0 / decimate=1 / interlaced=0 / bluray_compat=0 / constrained_intra=0 / bframes=4 / b_pyramid=2 / b_adapt=2 / b_bias=0 / direct=3 / weightb=1 / open_gop=0 / weightp=2 / keyint=250 / keyint_min=23 / scenecut=40 / intra_refresh=0 / rc=2pass / mbtree=0 / bitrate=4448 / ratetol=1.0 / qcomp=0.70 / qpmin=0 / qpmax=69 / qpstep=4 / cplxblur=20.0 / qblur=0.5 / ip_ratio=1.40 / pb_ratio=1.30 / aq=2:0.90
Язык : English
Default : Нет
Forced : Нет

Аудио #1
Идентификатор : 2
Формат : AC-3
Формат/Информация : Audio Coding 3
Расширение режима : CM (complete main)
Параметр Endianness формата : Big
Идентификатор кодека : A_AC3
Продолжительность : 2 ч. 0 м.
Вид битрейта : Постоянный
Битрейт : 448 Кбит/сек
Каналы : 6 каналов
Расположение каналов : Front: L C R, Side: L R, LFE
Частота : 48,0 КГц
Битовая глубина : 16 бит
Метод сжатия : С потерями
Размер потока : 386 Мбайт (6%)
Заголовок : BD EUR 448
Язык : Russian
Default : Да
Forced : Нет

Аудио #2
Идентификатор : 3
35b06aec1bdf6d26b77bc9024cb3c641d235f3aeКопы в юбках / The Heat [UNRATED] (Пол Фиг, комедия, криминал, боевик, детектив, 2013) [BDRip 720p, Дублированный, Украинский, Оригинал (Английский), субтитры] Копы в юбках / The Heat [UNRATED] (Пол Фиг, комедия, криминал, боевик, детектив, 2013) [BDRip 720p, Дублированный, Украинский, Оригинал (Английский), субтитры] " />

Аплоадер: Админ, дата: 30-10-2013, 19:11, торрент скачан: 359 раз

Понравилась раздача? Посмотрите эти:
  • Копы в юбках [Расширенная версия] / The Heat [Unrated cut] (Пол Фиг, комеди ...
  • Va-банк / Runner Runner (Брэд Фурман, триллер, драма, криминал, 2013) [BDRi ...
  • Джобс: Империя соблазна / jOBS (Джошуа Майкл Штерн, драма, биография, 2013) ...
  • Копы в юбках / The Hea [UNRATED] (Дубляж, комедия, криминал, боевик, детект ...
  • Одноклассники 2 / Grown Ups 2 (Деннис Дуган, Комедия, 2013) [BDRip-AVC, Про ...
  • Одноклассники 2 / Grown Ups 2 (Деннис Дуган, комедия, 2013) [BDRip 1080p, Д ...
  • Погнали! / Getaway (Кортни Соломон, боевик, криминал, 2013) [BDRip 1080p, П ...
  • Мальчишник: Часть III / The Hangover Part III (Тодд Филлипс, комедия, 2013) ...
  • Эффект колибри / Hummingbird (Стивен Найт, триллер, драма, криминал, боевик ...
  • Иллюзия обмана / Now You See Me [Extended Cut] (Луи Летерье, триллер, крими ...
  • Иллюзия обмана / Now You See Me [Extended Cut] (Луи Летерье, триллер, крими ...
  • Копы в юбках / The Heat (Пол Фиг, Комедия, криминал, боевик, детектив, 2013 ...
  • Копы в юбках / The Heat [Unrated] (Пол Фиг, Комедия, криминал, боевик, дет ...
  • Копы в юбках [Расширенная версия] / The Heat (Пол Фиг, Комедия, криминал, б ...
  • Гадкий я 2 / Despicable Me 2 (Пьер Соффин, Крис Рено, мультфильм, фантастик ...
  • Заклятие / The Conjuring (Джеймс Ван, ужасы, триллер, 2013) [BDRip 720р, Ду ...
  • Заклятие / The Conjuring (Джеймс Ван, ужасы, триллер, 2013) [BDRip 1080p, Д ...
  • Копы в юбках / The Heat [UNRATED] (Пол Фиг, комедия, криминал, боевик, дете ...
  • Копы в юбках / The Heat [UNRATED] (Пол Фиг, комедия, криминал, боевик, дете ...
  • Лавлэйс / Lovelace (Роб Эпштейн, Джеффри Фридман, драма, биография, 2013) [ ...
  • Поймай толстуху, если сможешь / Identity Thief [Theatrical Cut] (Сет Гордон ...
  • Перелом / Fracture (Грегори Хоблит, Триллер, драма, криминал, детектив, 200 ...
  • Ворон / The Raven (Джеймс МакТиг, Триллер, детектив, 2012) [BDRip 1080p, Ду ...
  • Ангелы Чарли / Charlies Angels (МакДжи, Боевик, триллер, комедия, криминал, ...
  • [Трейлер] Копы в юбках / The Heat (Пол Фиг, боевик, комедия, криминал) [HDR ...
  • Информация
    Посетители, находящиеся в группе Гости, не могут оставлять комментарии к данной публикации.