вход на сайт

Имя пользователя :
Пароль :

Восстановление пароля Регистрация
Турбо / Turbo (Дэвид Сорен, Мультфильм, комедия, приключения, семейный, спорт, 2013) [BDRip 720p, Профессиональный (полное дублирование), Оригинал (Aнглийский) + Sub]
Рейтинг:
(голосов: 1)



[img]{THEME}/images/logopost.png[/img]



Турбо / Turbo
«Быстрее, еще быстрее!»»

Год выпуска: 2013
Страна: США
Производство: DreamWorks Animation
Жанр: Мультфильм, комедия, приключения, семейный, спорт

Режиссёр: Дэвид Сорен
В ролях: Райан Рейнольдс, Пол Джаматти, Майкл Пенья, Луис Гузман, Билл Хейдер, Ричард Дженкинс, Кен Жонг, Мишель Родригес, Майя Рудольф

Перевод: Профессиональный (полное дублирование), Оригинал (Aнглийский)
Субтитры: Russian (full), English (full)
Формат субтитр: softsub (SRT)

Описание: Ничто так не раздражает темпераментную, мечтающую о скорости улитку с говорящим именем Турбо, как неспешная жизнь, медленные разговоры, заторможенные соседи. Пусть наш герой выглядит большим чудаком в этом вялом, неторопливом мире, пусть он идёт вопреки закону природы о «рождённом ползать», но если в сердце горит «пламенный мотор», а душа верит в чудо, оно просто не имеет права не произойти! Релиз от: Автор Рипа:


Качество: BDRip 720p | Turbo 2013 Blu-ray EUR 1080p AVC DTS-HD MA 7.1-HDCLUB | Sample
Продолжительность: 01:35:40 час.

Формат: MKV
Видео кодек: x264
Аудио кодек: AC3
Видео: 1280x544 (2.35:1), 23,976 fps, AVC ~5 453 kbps avg, 0.327 bit/pixel
Аудио#1: 48 kHz, AC3, 3/2 (L,C,R,l,r) + LFE ch, ~448 kbps | Профессиональный (полное дублирование)
Аудио#2: 48 kHz, AC3, 3/2 (L,C,R,l,r) + LFE ch, ~640 kbps | Оригинал (английский)

Премьера (мир) - 17 июля 2013
Премьера (РФ) - 18 июля 2013, «Двадцатый Век Фокс СНГ»

MediaInfo ▼Format : Matroska
Format version : Version 2
File size : 4.37 GiB
Duration : 1h 35mn
Overall bit rate : 6 540 Kbps
Movie name : Турбо.(2013).BDRip.720p.[envy]
Encoded date : UTC 2013-10-28 04:20:07
Writing application : mkvmerge v5.8.0 (No Sleep / Pillow) built on Sep 2 2012 15:37:04
Writing library : libebml v1.2.3 + libmatroska v1.3.0

Video
ID : 1
Format : AVC
Format/Info : Advanced Video Codec
Format profile : [email protected]
Format settings, CABAC : Yes
Format settings, ReFrames : 11 frames
Codec ID : V_MPEG4/ISO/AVC
Duration : 1h 35mn
Bit rate : 5 453 Kbps
Width : 1 280 pixels
Height : 544 pixels
Display aspect ratio : 2.35:1
Frame rate mode : Constant
Frame rate : 23.976 fps
Color space : YUV
Chroma subsampling : 4:2:0
Bit depth : 8 bits
Scan type : Progressive
Bits/(Pixel*Frame) : 0.327
Stream size : 3.56 GiB (81%)
Title : Турбо.(2013).BDRip.720p.[envy]
Writing library : x264 core 138 r2358 9e941d1
Encoding settings : cabac=1 / ref=11 / deblock=1:-1:-1 / analyse=0x3:0x133 / me=umh / subme=11 / psy=1 / psy_rd=1.00:0.00 / mixed_ref=1 / me_range=32 / chroma_me=1 / trellis=2 / 8x8dct=1 / cqm=0 / deadzone=21,11 / fast_pskip=0 / chroma_qp_offset=-2 / threads=12 / lookahead_threads=1 / sliced_threads=0 / nr=0 / decimate=1 / interlaced=0 / bluray_compat=0 / constrained_intra=0 / bframes=6 / b_pyramid=2 / b_adapt=2 / b_bias=0 / direct=3 / weightb=1 / open_gop=0 / weightp=2 / keyint=240 / keyint_min=23 / scenecut=40 / intra_refresh=0 / rc=2pass / mbtree=0 / bitrate=5453 / ratetol=2.0 / qcomp=0.60 / qpmin=0 / qpmax=69 / qpstep=4 / cplxblur=20.0 / qblur=0.5 / ip_ratio=1.40 / pb_ratio=1.30 / aq=1:0.70
Language : English
Default : Yes
Forced : No

Audio #1
ID : 2
Format : AC-3
Format/Info : Audio Coding 3
Mode extension : CM (complete main)
Format settings, Endianness : Big
Codec ID : A_AC3
Duration : 1h 35mn
Bit rate mode : Constant
Bit rate : 448 Kbps
Channel count : 6 channels
Channel positions : Front: L C R, Side: L R, LFE
Sampling rate : 48.0 KHz
Bit depth : 16 bits
Compression mode : Lossy
Stream size : 307 MiB (7%)
Title : Дубляж
Language : Russian
Default : Yes
Forced : No

Audio #2
ID : 3
Format : AC-3
Format/Info : Audio Coding 3
Mode extension : CM (complete main)
Format settings, Endianness : Big
Codec ID : A_AC3
Duration : 1h 35mn
Bit rate mode : Constant
Bit rate : 640 Kbps
Channel count : 6 channels
Channel posi
104de1445c8465b8f8660148c43429ee25ac106dТурбо / Turbo (Дэвид Сорен, Мультфильм, комедия, приключения, семейный, спорт, 2013) [BDRip 720p, Профессиональный (полное дублирование), Оригинал (Aнглийский) + Sub] Турбо / Turbo (Дэвид Сорен, Мультфильм, комедия, приключения, семейный, спорт, 2013) [BDRip 720p, Профессиональный (полное дублирование), Оригинал (Aнглийский) + Sub] " />

Аплоадер: Админ, дата: 28-10-2013, 16:00, торрент скачан: 359 раз

Понравилась раздача? Посмотрите эти:
  • Турбо / Turbo (Дэвид Сорен, Мультфильм, комедия, приключения, семейный, спо ...
  • Турбо / Turbo (Дэвид Сорен, Мультфильм, комедия, приключения, семейный, спо ...
  • Турбо / Turbo (Дэвид Сорен, Мультфильм, комедия, приключения, семейный, спо ...
  • Турбо / Turbo (Дэвид Сорен, Мультфильм, комедия, приключения, семейный, спо ...
  • Турбо / Turbo (Дэвид Сорен, мультфильм, комедия, приключения, семейный, спо ...
  • Турбо / Turbo (Дэвид Сорен, Мультфильм, комедия, приключения, семейный, спо ...
  • Турбо / Turbo (Дэвид Сорен, Мультфильм, комедия, приключения, семейный, спо ...
  • Турбо / Turbo (Дэвид Сорен, Мультфильм, комедия, приключения, семейный, спо ...
  • [3D] Турбо / Turbo (Дэвид Сорен, Мультфильм, комедия, приключения, 2013) [B ...
  • Турбо / Turbo (Дэвид Сорен, Мультфильм, комедия, приключения, семейный, спо ...
  • Четвертый вид / The Fourth Kind (Олатунде Осунсанми, ужасы, фантастика, 200 ...
  • Экзамен для двоих / Admission (Пол Вайц, драма, мелодрама, комедия, 2013) [ ...
  • Ослепленный желаниями / Bedazzled (Харольд Рэмис, фэнтези, комедия, 2000) [ ...
  • [Трейлер] Турбо / Turbo (Дэвид Сорен, мультфильм) [HDRip, Дублированный](11 ...
  • Хичкок / Hitchcock (Саша Джерваси, Драма, история, биография, 2012) [BDRip- ...
  • Цель Номер Один / Zero Dark Thirty (Кэтрин Бигелоу, Триллер, драма, история ...
  • Жизнь Пи / Life Of Pi (Энг Ли, Драма, приключения, 2012) [BDRip 720p, Профе ...
  • Жизнь Пи / Life Of Pi (Энг Ли, Драма, приключения, 2012) [BDRip 1080p, Проф ...
  • Мой парень из зоопарка / Zookeeper (Фрэнк Корачи, мелодрама, комедия, семей ...
  • [Тизер] Турбо / Turbo (Дэвид Сорен, мультфильм) [HDRip, Авторский (одноголо ...
  • Информация
    Посетители, находящиеся в группе Гости, не могут оставлять комментарии к данной публикации.