вход на сайт

Имя пользователя :
Пароль :

Восстановление пароля Регистрация
Гадкий я 2 / Despicable Me 2 (Пьер Соффин, Крис Рено, мультфильм, фантастика, комедия, криминал, 2013) [BDRip 720p, Дублированный, Оригинал (Английский), субтитры]
Рейтинг:
(голосов: 1)



[img]{THEME}/images/logopost.png[/img]



Гадкий я 2 / Despicable Me 2
«More minions. More despicable»

Год выпуска: 2013
Страна: США
Производство: Universal Pictures
Жанр: мультфильм, фантастика, комедия, криминал

Режиссёр: Пьер Соффин, Крис Рено
В ролях: Стив Карелл, Кен Жонг, Кристен Уиг, Миранда Косгров, Мойзес Ариас, Бенджамин Брэтт, Стив Куган, Расселл Брэнд, Элси Фишер, Дэна Гайер

Перевод: Дублированный, Оригинал (Английский)
Субтитры: Russian, English

Описание: В то время как Грю, бывший суперзлодей, приспосабливается к семейной жизни и пытается честным трудом зарабатывать в сфере бизнеса, тайные лаборатории Арктики оказываются украденными. Анти-Злодейская лига решает, что она нуждается в помощи Грю и его новобранцев в расследовании.



премьера (мир):16 июня 2013
премьера (РФ):15 августа 2013, «UPI»

Качество: BDRip 720p
Продолжительность: 01:37:59

Формат: MKV
Видео кодек: Н.264
Аудио кодек: DTS, AC3
Видео: 1280x692 (1,850), 23.976 fps fps, Н.264 ~ 4 980 kbps avg, 0.234 bit/pixel
Аудио#1: 48 kHz, DTS, 6 ch, ~755.00 kbps avg Russian
Аудио#2: 48 kHz, AC3, 6 ch, ~640.00 kbps avg English
Media Info ▼Полное имя : Despicable.Me.2.2013.Blu-ray.720p.x264.Rus.Eng.mkv
Формат : Matroska
Версия формата : Version 4 / Version 2
Размер файла : 4,37 Гбайт
Продолжительность : 1 ч. 37 м.
Общий поток : 6390 Кбит/сек
Название фильма : Despicable.Me.2.2013.Blu-ray.720p.x264-NiP
Дата кодирования : UTC 2013-10-19 09:01:57
Программа кодирования : mkvmerge v6.4.1 (Omega Point) built on Sep 16 2013 22:05:10
Библиотека кодирования : libebml v1.3.0 + libmatroska v1.4.1

Видео
Идентификатор : 1
Формат : AVC
Формат/Информация : Advanced Video Codec
Профиль формата : [email protected]
Параметр CABAC формата : Да
Параметр ReFrames формата : 9 кадров
Идентификатор кодека : V_MPEG4/ISO/AVC
Продолжительность : 1 ч. 37 м.
Битрейт : 4980 Кбит/сек
Ширина : 1280 пикселей
Высота : 692 пикселя
Соотношение сторон : 1,850
Частота кадров : 23,976 кадра/сек
Цветовое пространство : YUV
Субдискретизация насыщенности : 4:2:0
Битовая глубина : 8 бит
Тип развёртки : Прогрессивная
Бит/(Пиксели*Кадры) : 0.234
Размер потока : 3,33 Гбайт (76%)
Библиотека кодирования : x264 core 138 r2358 9e941d1
Настройки программы : cabac=1 / ref=9 / deblock=1:-1:-1 / analyse=0x3:0x113 / me=tesa / subme=11 / psy=1 / psy_rd=1.00:0.00 / mixed_ref=1 / me_range=24 / chroma_me=1 / trellis=2 / 8x8dct=1 / cqm=0 / deadzone=21,11 / fast_pskip=0 / chroma_qp_offset=-2 / threads=12 / lookahead_threads=2 / sliced_threads=0 / nr=0 / decimate=0 / interlaced=0 / bluray_compat=0 / constrained_intra=0 / bframes=7 / b_pyramid=2 / b_adapt=2 / b_bias=0 / direct=3 / weightb=1 / open_gop=0 / weightp=2 / keyint=240 / keyint_min=24 / scenecut=40 / intra_refresh=0 / rc_lookahead=150 / rc=2pass / mbtree=0 / bitrate=4980 / ratetol=1.0 / qcomp=0.65 / qpmin=0 / qpmax=69 / qpstep=4 / cplxblur=20.0 / qblur=0.5 / vbv_maxrate=50000 / vbv_bufsize=62500 / nal_hrd=none / ip_ratio=1.30 / pb_ratio=1.20 / aq=1:0.80
Язык : English
Коэффициенты матрицы : BT.709-5, BT.1361, IEC 61966-2-4 709, SMPTE RP177

Аудио #1
Идентификатор : 2
Формат : DTS
Формат/Информация : Digital Theater Systems
Идентификатор кодека : A_DTS
Продолжительность : 1 ч. 37 м.
Вид битрейта : Постоянный
Битрейт : 755 Кбит/сек
Каналы : 6 каналов
Расположение каналов : Front: L C R, Side: L R, LFE
Частота : 48,0 КГц
Битовая глубина : 24 бит
Метод сжатия : С потерями
Размер потока : 529 Мбайт (12%)
Язык : Russian

Аудио #2
Идентификатор : 3
Формат : AC-3
Формат/Информация : Audio Coding 3
Расширение режима : CM (complete main)
Идентификатор кодека : A_AC3
Продолжительность : 1 ч. 37 м.
Вид битрейта : Постоянный
Битрейт : 640 Кбит/сек
Каналы : 6 каналов
Расположение каналов : Front: L C R, Side: L R, LFE
Частота : 48,0 КГц
Битовая глубина : 16 бит
Метод сжатия : С потерями
Размер потока : 449 Мбайт (10%)
Язык : English

Текст #1
Идентификатор : 4
Формат : UTF-8
Идентификатор кодека : S_TEXT/
5cc7ca342ef0c4bce1abae1d32c04ba555884255Гадкий я 2 / Despicable Me 2 (Пьер Соффин, Крис Рено, мультфильм, фантастика, комедия, криминал, 2013) [BDRip 720p, Дублированный, Оригинал (Английский), субтитры] Гадкий я 2 / Despicable Me 2 (Пьер Соффин, Крис Рено, мультфильм, фантастика, комедия, криминал, 2013) [BDRip 720p, Дублированный, Оригинал (Английский), субтитры] " />

Аплоадер: Админ, дата: 19-10-2013, 18:40, торрент скачан: 359 раз

Понравилась раздача? Посмотрите эти:
  • Джобс: Империя соблазна / jOBS (Джошуа Майкл Штерн, драма, биография, 2013) ...
  • Одноклассники 2 / Grown Ups 2 (Деннис Дуган, комедия, 2013) [BDRip 1080p, Д ...
  • Иллюзия обмана / Now You See Me [Extended Cut] (Луи Летерье, триллер, крими ...
  • Гадкий я 2 / Despicable Me 2 (Пьер Соффин, Крис Рено, Мультфильм, фантастик ...
  • Гадкий я 2 / Despicable Me 2 (Пьер Соффин, Крис Рено, мультфильм, фантастик ...
  • Гадкий я 2 / Despicable Me 2 (Пьер Соффин, Крис Рено, мультфильм, фантастик ...
  • Гадкий я 2 / Despicable Me 2 (Пьер Соффин, Крис Рено, Мультфильм, фантастик ...
  • Гадкий я 2 / Despicable Me 2 (Пьер Соффин, Крис Рено, мультфильм, комедия, ...
  • Гадкий я 2 / Despicable Me 2 (Пьер Соффин, Крис Рено, Мультфильм, фантастик ...
  • Гадкий я 2 / Despicable Me 2 (Пьер Соффин, Крис Рено, Мультфильм, фантастик ...
  • Гадкий я 2 / Despicable Me 2 (Пьер Соффин, Крис Рено, Мультфильм, фантастик ...
  • Гадкий я 2 / Despicable Me 2 (Пьер Соффин, Крис Рено, Мультфильм, фантастик ...
  • [3D] Гадкий я 2 / Despicable Me 2 (Пьер Соффин, Крис Рено, Мультфильм, фант ...
  • Гадкий я 2 / Despicable Me 2 (Пьер Соффин, Крис Рено, Мультфильм, фантастик ...
  • Гадкий я 2 / Despicable Me 2 (Пьер Соффин, Крис Рено, Мультфильм, фантастик ...
  • Заклятие / The Conjuring (Джеймс Ван, ужасы, триллер, 2013) [BDRip 720р, Ду ...
  • Заклятие / The Conjuring (Джеймс Ван, ужасы, триллер, 2013) [BDRip 1080p, Д ...
  • [Трейлер] Гадкий я 2 / Despicable Me 2 (Пьер Соффин, Крис Рено, мультфильм, ...
  • Миньоны / Minions (Пьер Коффин, Крис Рено, короткометражка, анимация, мульт ...
  • [Тизер] Гадкий я 2 / Despicable Me 2 (Пьер Коффен, Крис Рено, мультфильм, ...
  • Информация
    Посетители, находящиеся в группе Гости, не могут оставлять комментарии к данной публикации.