вход на сайт

Имя пользователя :
Пароль :

Восстановление пароля Регистрация
Ледяной / The Iceman (Ариэль Вромен, драма, криминал, биография, 2013) [BDRip 720p, Профессиональный (многоголосый закадровый) [НТВ+], Любительский (двухголосый закадровый) ["Пираты"], Любительский (одноголосый закадровый) [Артем Белоконский], Sub]
Рейтинг:
(голосов: 1)



[img]{THEME}/images/logopost.png[/img]



Ледяной / The Iceman
«Любящий муж. Преданный отец. Безжалостный убийца»

Год выпуска: 2013
Страна: США
Производство: Bleiberg Entertainment, Millennium Films, RabbitBandini Productions
Жанр: драма, криминал, биография

Режиссёр: Ариэль Вромен
В ролях: Майкл Шеннон, Вайнона Райдер, Рэй Лиотта, Крис Эванс, Дэвид Швиммер, Роберт Дави, Дэнни А. Абекейзер, Джон Вентимилья, Райан О’Нан, МакКали Миллер

Перевод: Профессиональный (многоголосый закадровый) [НТВ+], Любительский (двухголосый закадровый) ["Пираты"], Любительский (одноголосый закадровый) [Артем Белоконский]
Субтитры: Русские

Описание: Криминальный байопик проливает свет на историю о наемном убийце Ричарде Куклински, сумевшем долгое время параллельно вести две абсолютно взаимоисключающие жизни: с одной стороны он жестокий киллер, с другой — образцовый семьянин.



премьера (мир):30 августа 2012
премьера (РФ):29 августа 2013, «Utopia Pictures»


Качество: BDRip 720p
Продолжительность: 01:45:27

Формат: MKV
Видео кодек: H.264
Аудио кодек: AC3
Видео: 1280x720 (16:9), 23.976 fps fps, H.264 ~4 143 kbps avg, 0.188 bit/pixel
Аудио#1: 48 kHz, AC3, 2 ch, ~192.00 kbps avg [НТВ+]
Аудио#2: 48 kHz, AC3, 6 ch, ~448.00 kbps avg Пираты
Аудио#3: 48 kHz, AC3, 6 ch, ~448.00 kbps avg А.Белоконский
Media Info ▼Format : Matroska
Format version : Version 4 / Version 2
File size : 3.93 GiB
Duration : 1h 45mn
Overall bit rate : 5 337 Kbps
Encoded date : UTC 2013-10-12 08:55:07
Writing application : mkvmerge v6.4.1 (Omega Point) built on Sep 16 2013 22:05:10
Writing library : libebml v1.3.0 + libmatroska v1.4.1

Video
ID : 1
Format : AVC
Format/Info : Advanced Video Codec
Format profile : [email protected]
Format settings, CABAC : Yes
Format settings, ReFrames : 9 frames
Codec ID : V_MPEG4/ISO/AVC
Duration : 1h 45mn
Bit rate : 4 143 Kbps
Width : 1 280 pixels
Height : 720 pixels
Display aspect ratio : 16:9
Frame rate mode : Constant
Frame rate : 23.976 fps
Color space : YUV
Chroma subsampling : 4:2:0
Bit depth : 8 bits
Scan type : Progressive
Bits/(Pixel*Frame) : 0.188
Stream size : 3.05 GiB (78%)
Writing library : x264 core 135 r2345 f0c1c53
Encoding settings : cabac=1 / ref=9 / deblock=1:-3:-3 / analyse=0x3:0x133 / me=tesa / subme=11 / psy=1 / psy_rd=1.15:0.00 / mixed_ref=1 / me_range=16 / chroma_me=1 / trellis=2 / 8x8dct=1 / cqm=0 / deadzone=21,11 / fast_pskip=0 / chroma_qp_offset=-2 / threads=12 / lookahead_threads=2 / sliced_threads=0 / nr=0 / decimate=1 / interlaced=0 / bluray_compat=0 / constrained_intra=0 / bframes=9 / b_pyramid=2 / b_adapt=2 / b_bias=0 / direct=3 / weightb=1 / open_gop=0 / weightp=2 / keyint=250 / keyint_min=23 / scenecut=40 / intra_refresh=0 / rc=crf / mbtree=0 / crf=15.8 / qcomp=0.75 / qpmin=0 / qpmax=69 / qpstep=4 / ip_ratio=1.40 / pb_ratio=1.30 / aq=1:0.60
Language : English
Default : Yes
Forced : No
Matrix coefficients : BT.709

Audio #1
ID : 2
Format : AC-3
Format/Info : Audio Coding 3
Mode extension : CM (complete main)
Format settings, Endianness : Big
Codec ID : A_AC3
Duration : 1h 45mn
Bit rate mode : Constant
Bit rate : 192 Kbps
Channel count : 2 channels
Channel positions : Front: L R
Sampling rate : 48.0 KHz
Bit depth : 16 bits
Compression mode : Lossy
Stream size : 145 MiB (4%)
Title : Нтв+
Language : Russian
Default : Yes
Forced : Yes

Audio #2
ID : 3
Format : AC-3
Format/Info : Audio Coding 3
Mode extension : CM (complete main)
Format settings, Endianness : Big
Codec ID : A_AC3
Duration : 1h 45mn
Bit rate mode : Constant
Bit rate : 448 Kbps
Channel count : 6 channels
Channel positions : Front: L C R, Side: L R, LFE
Sampling rate : 48.0 KHz
Bit depth : 16 bits
Compression mode : Lossy
Stream size : 338 MiB (8%)
Title : Пираты
Language : Russian
Default : No
Forced : No

Audio #3
ID : 4
Format : AC-3
Format/Info : Audio Coding 3
Mode extension : CM (complete main)
Format settings, Endianness : Big
Codec ID : A_AC3
Duration : 1h 45mn
Bi
845e9dd426cd7df2499a490f7a97860f6820ce25Ледяной / The Iceman (Ариэль Вромен, драма, криминал, биография, 2013) [BDRip 720p, Профессиональный (многоголосый закадровый) [НТВ+], Любительский (двухголосый закадровый) ["Пираты"], Любительский (одноголосый закадровый) [Артем Белоконский], Sub] Ледяной / The Iceman (Ариэль Вромен, драма, криминал, биография, 2013) [BDRip 720p, Профессиональный (многоголосый закадровый) [НТВ+], Любительский (двухголосый закадровый) ["Пираты"], Любительский (одноголосый закадровый) [Артем Белоконский], Sub] " />

Аплоадер: Админ, дата: 12-10-2013, 17:06, торрент скачан: 359 раз

Понравилась раздача? Посмотрите эти:
  • Ледяной / The Iceman (Ариэль Вромен, драма, криминал, биография, 2012) [BDR ...
  • Погнали! / Getaway (Кортни Соломон, боевик, криминал, 2013) [BDRip 720p, Пр ...
  • Ледяной / The Iceman (Ариэль Вромен, драма, криминал, биография, 2012) [HDR ...
  • Ледяной / The Iceman (Ариэль Вромен, Драма, криминал, биография, 2012) [BDR ...
  • Посылка / The Package (Джесси Джонсон, боевик, 2013) [BDRip 720p, Профессио ...
  • Ледяной / The Iceman (Ариэль Вромен, Драма, криминал, биография, 2012) [BDR ...
  • Чемпионат Германии 2013-14 / 4-й тур / Preview / НТВ+ [30.08.2013, 720p, x2 ...
  • Ледяной / The Iceman (Ариэль Вромен / Ariel Vromen, Триллер, Драма, Кримина ...
  • Ледяной / The Iceman (Ариэль Вромен, триллер, драма, криминал, биография, 2 ...
  • Ледяной / The Iceman (Ариэль Вромен, триллер, драма, криминал, биография, 2 ...
  • 42 / 42 (Брайан Хелгеленд, Драма, биография, спорт, 2013) [BDRip 720p, Проф ...
  • Тысяча слов / A Thousand Words (Брайан Роббинс, Комедия, драма, 2012) [BDRi ...
  • Кровью и потом: Анаболики / Pain & Gain (Майкл Бэй, криминал, комедия, трил ...
  • Честь дракона / Tom yum goong (Прачья Пинкаю, боевик, триллер, драма, крим ...
  • Запретная любовь / The Edge of Love (Джон Мэйбери, Драма, мелодрама, военны ...
  • Безопасность не гарантируется / Safety Not Guaranteed (Колин Треворроу, фан ...
  • Водитель / The Driver (Уолтер Хилл, Боевик, триллер, драма, криминал, 1978) ...
  • Репортаж из преисподней / [REC] 2 (Жауме Балагуэро, Пако Пласа, ужасы, трил ...
  • Похищенная / A Lonely Place to Die (Джулиан Джилби, триллер, криминал, прик ...
  • Пираньи 3DD / Piranha 3DD (Джон Гулажер, ужасы, триллер, комедия, 2012) [BD ...
  • Слова / The Words [EXTENDED] (Ли Стернтал, Драма, мелодрама, 2012) [BDRip 7 ...
  • Mylene Farmer / Du Temps [2011, Pop, HDTVRip]
  • PBS: Природа – Гималаи / PBS: Nature – The Himalayas (Крис Морган, Докумен ...
  • Футбольные гладиаторы / Ушедшее время / Awaydays (Пэт Холден, драма, кримин ...
  • [Трейлер] Ледяной / The Iceman (Ариэль Вромен, триллер, драма, криминал) [H ...
  • Информация
    Посетители, находящиеся в группе Гости, не могут оставлять комментарии к данной публикации.