вход на сайт

Имя пользователя :
Пароль :

Восстановление пароля Регистрация
Иллюзия обмана / Now You See Me [Extended Cut] (Луи Летерье, триллер, криминал, детектив, 2013) [BDRip 720p, Дублированный, оригинал (английский), субтитры]
Рейтинг:
(голосов: 1)



[img]{THEME}/images/logopost.png[/img]



Иллюзия обмана / Now You See Me
[Extended Cut]
«Чем вы ближе, тем меньше вы видите»

Год выпуска: 2013
Страна: Франция, США
Производство: Summit Entertainment, K/O Paper Products, SOIXAN7E QUIN5E
Жанр: триллер, криминал, детектив

Режиссёр: Луи Летерье
В ролях: Джесси Айзенберг, Дэйв Франко, Морган Фримен, Марк Руффало, Айла Фишер, Мелани Лоран, Вуди Харрельсон, Майкл Кейн, Майкл Келли, Коммон, Дэвид Уоршофски, Джессика Линдси, Каитриона Бэлфи

Перевод: Дублированный, оригинал (английский)
Субтитры: Русские, английские

Описание: Команда лучших иллюзионистов мира проворачивает дерзкие ограбления прямо во время своих шоу, играя в кошки-мышки с агентами ФБР.



премьера (мир):21 мая 2013
премьера (РФ):12 июня 2013, «Централ Партнершип»


Качество: BDRip 720p
Продолжительность: 02:04:48

Формат: MKV
Видео кодек: H.264
Аудио кодек: AC3, DTS
Видео: 1280x534 (2,40:1), 23,976 fps, H.264 ~6 889 kbps avg, 0.420 bit/pixel
Аудио#1: 48 kHz, AC3, 6 ch, ~448.00 kbps avg(рус)
Аудио#2: 48 kHz, AC3, 6 ch, ~640.00 kbps avg(eng)
Аудио#3: 48 kHz, DTS, 6 ch, ~1509.00 kbps avg(eng)

"Media Info" ▼
Полное имя : C:ЗагрузкиNow.You.See.Me.2013.Extended.Cut.720p.BluRay.DD5.1.x264-HiDt.mkv
Формат : Matroska
Версия формата : Version 2
Размер файла : 8,44 Гбайт
Продолжительность : 2 ч. 4 м.
Общий поток : 9678 Кбит/сек
Дата кодирования : UTC 2013-10-08 20:42:53
Программа кодирования : mkvmerge v5.6.0 (Kenya Kane) built on May 27 2012 16:44:04
Библиотека кодирования : libebml v1.2.3 + libmatroska v1.3.0

Видео
Идентификатор : 1
Формат : AVC
Формат/Информация : Advanced Video Codec
Профиль формата : [email protected]
Параметр CABAC формата : Да
Параметр ReFrames формата : 12 кадров
Идентификатор кодека : V_MPEG4/ISO/AVC
Продолжительность : 2 ч. 4 м.
Битрейт : 6889 Кбит/сек
Ширина : 1280 пикселей
Высота : 534 пикселя
Соотношение сторон : 2,40:1
Режим частоты кадров : Постоянный
Частота кадров : 23,976 кадра/сек
Цветовое пространство : YUV
Субдискретизация насыщенности : 4:2:0
Битовая глубина : 8 бит
Тип развёртки : Прогрессивная
Бит/(Пиксели*Кадры) : 0.420
Размер потока : 6,01 Гбайт (71%)
Заголовок : HiDt
Библиотека кодирования : x264 core 133 r2334 a3ac64b
Настройки программы : cabac=1 / ref=12 / deblock=1:-3:-3 / analyse=0x3:0x113 / me=tesa / subme=11 / psy=1 / psy_rd=1.07:0.00 / mixed_ref=1 / me_range=32 / chroma_me=1 / trellis=2 / 8x8dct=1 / cqm=0 / deadzone=21,11 / fast_pskip=0 / chroma_qp_offset=-2 / threads=12 / lookahead_threads=2 / sliced_threads=0 / nr=0 / decimate=1 / interlaced=0 / bluray_compat=0 / constrained_intra=0 / bframes=8 / b_pyramid=2 / b_adapt=2 / b_bias=0 / direct=3 / weightb=1 / open_gop=0 / weightp=2 / keyint=250 / keyint_min=25 / scenecut=40 / intra_refresh=0 / rc=crf / mbtree=0 / crf=16.7 / qcomp=0.70 / qpmin=0 / qpmax=69 / qpstep=4 / ip_ratio=1.40 / pb_ratio=1.30 / aq=1:0.90
Язык : English
Default : Да
Forced : Нет
Коэффициенты матрицы : BT.709

Аудио #1
Идентификатор : 2
Формат : AC-3
Формат/Информация : Audio Coding 3
Расширение режима : CM (complete main)
Параметр Endianness формата : Big
Идентификатор кодека : A_AC3
Продолжительность : 2 ч. 4 м.
Вид битрейта : Постоянный
Битрейт : 448 Кбит/сек
Каналы : 6 каналов
Расположение каналов : Front: L C R, Side: L R, LFE
Частота : 48,0 КГц
Битовая глубина : 16 бит
Метод сжатия : С потерями
Размер потока : 400 Мбайт (5%)
Заголовок : Дублированный + вставки (Ю.Сербин)
Язык : Russian
Default : Да
Forced : Да

Аудио #2
Идентификатор : 3
Формат : AC-3
Формат/Информация : Audio Coding 3
Расширение режима : CM (complete main)
Параметр Endianness формата : Big
Идентификатор кодека : A_AC3
Продолжительность : 2 ч. 4 м.
Вид битрейта : Постоянный
Битрейт : 640 Кбит/сек
Каналы : 6 каналов
Расположение каналов : Front: L C R, Side: L R, LFE
Частота : 48,0 КГц
Битовая глубина : 16 бит
Метод сжатия : С потерями
Размер потока : 571 Мбайт (7%)
Заголовок : DD5.1
Язык : English
Default : Н
3ab97183a8ed1e94e94c6e0c06076a30ac9224e9Иллюзия обмана / Now You See Me [Extended Cut] (Луи Летерье, триллер, криминал, детектив, 2013) [BDRip 720p, Дублированный, оригинал (английский), субтитры] Иллюзия обмана / Now You See Me [Extended Cut] (Луи Летерье, триллер, криминал, детектив, 2013) [BDRip 720p, Дублированный, оригинал (английский), субтитры] " />

Аплоадер: Админ, дата: 10-10-2013, 17:26, торрент скачан: 359 раз

Понравилась раздача? Посмотрите эти:
  • Иллюзия обмана / Now You See Me (Луи Летерье, Триллер, Криминал, Детектив, ...
  • Мэрайа Мунди и шкатулка Мидаса / The Adventurer: The Curse of the Midas Box ...
  • Джобс: Империя соблазна / jOBS (Джошуа Майкл Штерн, драма, биография, 2013) ...
  • Одноклассники 2 / Grown Ups 2 (Деннис Дуган, комедия, 2013) [BDRip 1080p, Д ...
  • Погнали! / Getaway (Кортни Соломон, боевик, криминал, 2013) [BDRip 1080p, П ...
  • 11.6 / 11.6 (Филипп Годо, Драма, триллер, криминал, 2013) [BDRip-AVC, Профе ...
  • Византия / Byzantium (Нил Джордан, Фэнтези, триллер, драма, 2012) [BDRip 10 ...
  • Эффект колибри / Hummingbird (Стивен Найт, триллер, драма, криминал, боевик ...
  • Мальчишник: Часть III / The Hangover Part III (Тодд Филлипс, комедия, 2013) ...
  • Эффект колибри / Hummingbird (Стивен Найт, триллер, драма, криминал, боевик ...
  • Иллюзия обмана / Now You See Me [Extended Cut] (Луи Летерье, триллер, крими ...
  • Гадкий я 2 / Despicable Me 2 (Пьер Соффин, Крис Рено, мультфильм, фантастик ...
  • Заклятие / The Conjuring (Джеймс Ван, ужасы, триллер, 2013) [BDRip 720р, Ду ...
  • Заклятие / The Conjuring (Джеймс Ван, ужасы, триллер, 2013) [BDRip 1080p, Д ...
  • Копы в юбках / The Heat [UNRATED] (Пол Фиг, комедия, криминал, боевик, дете ...
  • Лавлэйс / Lovelace (Роб Эпштейн, Джеффри Фридман, драма, биография, 2013) [ ...
  • Иллюзия обмана / Now You See Me [Theatrical Cut] (Луи Летерье / Louis Leter ...
  • Никто не выжил / No One Lives (Рюхэй Китамура, Триллер, ужасы, 2012) [BDRip ...
  • Порочные игры / Stoker (Пак Чхан Ук, Триллер, драма, детектив, 2013) [BDRip ...
  • Рикошет / Ricochet (Ник Гомез, драма, детектив, 2011) [BDRip-AVC, Профессио ...
  • Перелом / Fracture (Грегори Хоблит, Триллер, драма, криминал, детектив, 200 ...
  • Ворон / The Raven (Джеймс МакТиг, Триллер, детектив, 2012) [BDRip 1080p, Ду ...
  • Даю год / I Give It a Year (Дэн Мазер, мелодрама, комедия, 2012) [BDRip-AVC ...
  • Суррогат / The Sessions (Бен Луин, Драма, 2012) [BDRip-AVC, Профессиональны ...
  • Невероятный Халк / The Incredible Hulk (Луи Летерье, фантастика, боевик, тр ...
  • Информация
    Посетители, находящиеся в группе Гости, не могут оставлять комментарии к данной публикации.