вход на сайт

Имя пользователя :
Пароль :

Восстановление пароля Регистрация
После нашей эры / After Earth (М. Найт Шьямалан, Фантастика, приключения, боевик, 2013) [BDRip 720p, Дубляж, Оригинал (английский), sub]
Рейтинг:
(голосов: 1)



[img]{THEME}/images/logopost.png[/img]



После нашей эры / After Earth
«Danger is real. Fear is a choice.»

Год выпуска: 2013
Страна: США
Производство: Columbia Pictures
Жанр: Фантастика, приключения, боевик

Режиссёр: М. Найт Шьямалан
В ролях: Уилл Смит, Джейден Смит, Зои Кравиц, Изабель Фурман, Кристофер Хивджу, Софи Оконедо, Дэвид Денман, Гленн Моршауэр, Линкольн Льюис и др.

Перевод: Дублированный, оригинал (английский)
Субтитры: Русские, английские

Описание: События разворачиваются через тысячу лет после катастрофы, вынудившей человечество покинуть Землю. Новым домом становится планета под названием Нова Прайм. Легендарный генерал Сайфер Рейдж возвращается с очередного боевого задания в семью, которая раньше обходилась без его родительского внимания, чтобы стать отцом своему 13-летнему сыну Китаю. Во время астероидной бури летательный аппарат с папой и сыном на борту терпит крушение, падая на незнакомую и опасную Землю. И пока Рейдж-старший на последнем дыхании лежит среди обломков своего корабля, сын должен пересечь враждебный ландшафт, чтобы запустить их спасательный маячок. Ни о чем большем юноша в своей жизни не мечтал: быть солдатом, как отец, - его заветное желание. Сегодня у него есть шанс проявить себя.
http://www.kinopoisk.ru/film//



Дата премьеры (мир): 1 мая 2013
Премьера (РФ): 6 июня 2013, «WDSSPR»

Качество: BDRip 720р
Продолжительность: 01:40:02

Формат: MKV
Видео кодек: AVC
Аудио кодек: AC3, DTS
Cвойства видео: 1280x534 (2,40:1), 23,976 fps, ~4725 Кбит/сек, 0.288 bit/pix
Свойства аудио RU: 48 kHz, Audio Coding 3, (L C R, Side: L R, LFE) ch, ~ 640.00 kbps avg
Свойства аудио UA: 48 kHz, Audio Coding 3, (L C R, Side: L R, LFE) ch, ~ 640.00 kbps avg
Свойства аудио EN: 48 kHz, Digital Theater Systems, 3/2 (L,C,R,l,r) + LFE ch, ~ 1509.00 kbps avgТех. данные ▼Format : Matroska
Format version : Version 4 / Version 2
File size : 5.25 GiB
Duration : 1h 40mn
Overall bit rate : 7 516 Kbps
Movie name : CMEGRoup
Encoded date : UTC 2013-10-03 16:06:50
Writing application : mkvmerge v6.1.0 (Old Devil) built on Mar 2 2013 14:32:37
Writing library : libebml v1.3.0 + libmatroska v1.4.0

Video
ID : 1
Format : AVC
Format/Info : Advanced Video Codec
Format profile : [email protected]
Format settings, CABAC : Yes
Format settings, ReFrames : 10 frames
Codec ID : V_MPEG4/ISO/AVC
Duration : 1h 40mn
Bit rate : 4 725 Kbps
Width : 1 280 pixels
Height : 534 pixels
Display aspect ratio : 2.40:1
Frame rate mode : Constant
Frame rate : 23.976 fps
Color space : YUV
Chroma subsampling : 4:2:0
Bit depth : 8 bits
Scan type : Progressive
Bits/(Pixel*Frame) : 0.288
Stream size : 3.20 GiB (61%)
Writing library : x264 core 138 r2356 a1d3d17
Encoding settings : cabac=1 / ref=10 / deblock=1:-3:-3 / analyse=0x3:0x113 / me=umh / subme=10 / psy=1 / psy_rd=1.00:0.05 / mixed_ref=1 / me_range=32 / chroma_me=1 / trellis=2 / 8x8dct=1 / cqm=0 / deadzone=21,11 / fast_pskip=0 / chroma_qp_offset=-2 / threads=18 / lookahead_threads=1 / sliced_threads=0 / nr=0 / decimate=1 / interlaced=0 / bluray_compat=0 / constrained_intra=0 / bframes=4 / b_pyramid=2 / b_adapt=2 / b_bias=0 / direct=3 / weightb=1 / open_gop=0 / weightp=2 / keyint=250 / keyint_min=23 / scenecut=40 / intra_refresh=0 / rc=2pass / mbtree=0 / bitrate=4725 / ratetol=1.0 / qcomp=0.70 / qpmin=0 / qpmax=69 / qpstep=4 / cplxblur=20.0 / qblur=0.5 / ip_ratio=1.40 / pb_ratio=1.30 / aq=2:1.00
Language : English
Default : Yes
Forced : No

Audio #1
ID : 2
Format : AC-3
Format/Info : Audio Coding 3
Mode extension : CM (complete main)
Format settings, Endianness : Big
Codec ID : A_AC3
Duration : 1h 40mn
Bit rate mode : Constant
Bit rate : 640 Kbps
Channel(s) : 6 channels
Channel positions : Front: L C R, Side: L R, LFE
Sampling rate : 48.0 KHz
Bit depth : 16 bits
Compression mode : Lossy
Stream size : 458 MiB (9%)
Language : Russian
Default : Yes
Forced : No

Audio #2
ID : 3
Format : AC-3
Format/Info : Audio Coding 3
Mo
fe3006034884e0de53e73049717e35366d73f30dПосле нашей эры / After Earth (М. Найт Шьямалан, Фантастика, приключения, боевик, 2013) [BDRip 720p, Дубляж, Оригинал (английский), sub] После нашей эры / After Earth (М. Найт Шьямалан, Фантастика, приключения, боевик, 2013) [BDRip 720p, Дубляж, Оригинал (английский), sub] " />

Аплоадер: Админ, дата: 4-10-2013, 09:39, торрент скачан: 359 раз

Понравилась раздача? Посмотрите эти:
  • Погнали! / Getaway (Кортни Соломон, боевик, криминал, 2013) [BDRip 720p, Пр ...
  • Пастырь / Priest (Скотт Чарльз Стюарт, ужасы, фантастика, боевик, триллер, ...
  • После нашей эры / After Earth (М. Найт Шьямалан, Фантастика, приключения, б ...
  • После нашей эры / After Earth (М. Найт Шьямалан, Фантастика, приключения, б ...
  • После нашей эры / After Earth (М. Найт Шьямалан, Фантастика, приключения, б ...
  • После нашей эры / After Earth (М. Найт Шьямалан, Фантастика, приключения, б ...
  • После нашей эры / After Earth (М. Найт Шьямалан, Фантастика, приключения, б ...
  • После нашей эры / After Earth (М. Найт Шьямалан, Фантастика, приключения, б ...
  • После нашей эры / After Earth (М. Найт Шьямалан, Фантастика, приключения, ...
  • После нашей эры / After Earth (М. Найт Шьямалан, Фантастика, приключения, б ...
  • После нашей эры / After Earth (М. Найт Шьямалан, фантастика, приключения, б ...
  • [iPhone, iPod] После нашей эры / After Earth (М. Найт Шьямалан, фантастика, ...
  • После нашей эры / After Earth (М. Найт Шьямалан, ужасы, Фантастика, приключ ...
  • Железный человек 3 / Iron Man 3 (Шейн Блэк, Фантастика, боевик, приключения ...
  • Воображариум / Imaginaerum (Стобе Харью, Фэнтези, приключения, мюзикл, драм ...
  • 42 / 42 (Брайан Хелгеленд, Драма, биография, спорт, 2013) [BDRip 720p, Проф ...
  • Хроника / Chronicle (Джошуа Транк, фантастика, боевик, триллер, драма, 2012 ...
  • Обливион / Oblivion (Джозеф Косински, фантастика, боевик, триллер, приключе ...
  • Обливион / Oblivion (Джозеф Косински, Фантастика, боевик, триллер, приключе ...
  • Обливион / Oblivion (Джозеф Косински, Фантастика, боевик, триллер, приключе ...
  • UFC The Ultimate 100 Knockouts - PPV [MMA,2013, HDTVRip 720p]
  • [Трейлер] После нашей эры / After Earth (М. Найт Шьямалан, фантастика, боев ...
  • «Весёлые» каникулы / Get the Gringo (Адриан Грюнберг, Боевик, комедия, 2012 ...
  • Люди в черном 3 / Men in Black III (Барри Зонненфельд, Фантастика, боевик, ...
  • [Трейлер] После нашей эры / After Earth (М. Найт Шьямалан, фантастика, боев ...
  • Информация
    Посетители, находящиеся в группе Гости, не могут оставлять комментарии к данной публикации.