вход на сайт

Имя пользователя :
Пароль :

Восстановление пароля Регистрация
Ученик мастера / Tai Chi 0 (Стивен Фанг, боевик, драма, 2012) [BDRip 720p, Дублированный, субтитры]
Рейтинг:
(голосов: 1)



[img]{THEME}/images/logopost.png[/img]



Ученик мастера / Tai Chi 0
«Рождение легенды»

Год выпуска: 2012
Страна: Китай
Производство: Diversion Pictures, Huayi Brothers & Taihe Film Investment
Жанр: боевик, драма

Режиссёр: Стивен Фанг
В ролях: Фунг Харк-Он, Стивен Фанг, Юань Сяочао, Шу Ци, Вэй Кеунг Лау, Сю-Люн Люн, Анджела Бейби, Эдди Пэн, Ди У, Чэнь Сы Чэн

Перевод: Дублированный [Студия SOL PRO]
Субтитры: Chinese, English

Описание:Необыкновенно одарённого ребёнка Яна все считают местным дурачком, но он не обращает на это внимание. Ян отправляется в затерянную в горах деревню мастеров кунг-фу, чтобы изучить тайны этой борьбы. Но, он недостоин обучаться великому искусству — в первом же бою он проиграл девушке. Только местный нищий старик сочувствует ему и берется научить его. Эти навыки ему пригодятся в борьбе с злодеями, чтобы вернуть доверие жителей деревни и завоевать сердце красавицы Юнь. Ведь нищий старик, на самом деле, великий мастер кунгфу и отец Юнь. Битва начинается!



премьера (мир):31 августа 2012
премьера (РФ): 29 августа 2013, «Арена»

Качество: BDRip 720p
Продолжительность: 01:38:36

Формат: MKV
Видео кодек: H.264
Аудио кодек: AC3
Видео: 1280x546 (2.35:1), 23.976 fps, H.264 ~5 736 kbps avg, 0.342 bit/pixel
Аудио: 48 kHz, AC3, 2 ch, ~192.00 kbps avg
"Media Info" ▼Format : Matroska
Format version : Version 2
File size : 4.08 GiB
Duration : 1h 38mn
Overall bit rate : 5 936 Kbps
Encoded date : UTC 2013-09-27 21:03:28
Writing application : mkvmerge v5.8.0 (No Sleep / Pillow) built on Sep 2 2012 15:37:04
Writing library : libebml v1.2.3 + libmatroska v1.3.0

Video
ID : 1
Format : AVC
Format/Info : Advanced Video Codec
Format profile : [email protected]
Format settings, CABAC : Yes
Format settings, ReFrames : 10 frames
Codec ID : V_MPEG4/ISO/AVC
Duration : 1h 38mn
Bit rate : 5 736 Kbps
Width : 1 280 pixels
Height : 546 pixels
Display aspect ratio : 2.35:1
Frame rate : 23.976 fps
Color space : YUV
Chroma subsampling : 4:2:0
Bit depth : 8 bits
Scan type : Progressive
Bits/(Pixel*Frame) : 0.342
Stream size : 3.87 GiB (95%)
Title : [email protected]
Writing library : x264 core 125 r2208 d9d2288
Encoding settings : cabac=1 / ref=10 / deblock=1:-3:-3 / analyse=0x3:0x113 / me=umh / subme=10 / psy=1 / psy_rd=1.10:0.15 / mixed_ref=1 / me_range=32 / chroma_me=1 / trellis=2 / 8x8dct=1 / cqm=0 / deadzone=21,11 / fast_pskip=0 / chroma_qp_offset=-2 / threads=12 / lookahead_threads=2 / sliced_threads=0 / nr=0 / decimate=1 / interlaced=0 / bluray_compat=0 / constrained_intra=0 / bframes=6 / b_pyramid=2 / b_adapt=2 / b_bias=0 / direct=3 / weightb=1 / open_gop=0 / weightp=2 / keyint=250 / keyint_min=23 / scenecut=40 / intra_refresh=0 / rc_lookahead=40 / rc=2pass / mbtree=0 / bitrate=5736 / ratetol=1.0 / qcomp=0.60 / qpmin=0 / qpmax=69 / qpstep=4 / cplxblur=20.0 / qblur=0.5 / vbv_maxrate=40000 / vbv_bufsize=30000 / nal_hrd=none / ip_ratio=1.40 / pb_ratio=1.30 / aq=1:0.80
Language : Chinese
Default : Yes
Forced : No

Audio
ID : 2
Format : AC-3
Format/Info : Audio Coding 3
Mode extension : CM (complete main)
Format settings, Endianness : Big
Codec ID : A_AC3
Duration : 1h 38mn
Bit rate mode : Constant
Bit rate : 192 Kbps
Channel(s) : 2 channels
Channel positions : Front: L R
Sampling rate : 48.0 KHz
Bit depth : 16 bits
Compression mode : Lossy
Stream size : 135 MiB (3%)
Language : Russian
Default : Yes
Forced : No

Text #1
ID : 3
Format : PGS
Muxing mode : zlib
Codec ID : S_HDMV/PGS
Codec ID/Info : The same subtitle format used on BDs/HD-DVDs
Title : Simplified Chinese
Language : Chinese
Default : No
Forced : No

Text #2
ID : 4
Format : PGS
Muxing mode : zlib
Codec ID : S_HDMV/PGS
Codec ID/Info : The same subtitle format used on BDs/HD-DVDs
Title : Traditional Chinese
Language : Chinese
Default : No
Forced : No

Text #3
ID : 5
Format : PGS
Muxing mode : zlib
Codec ID : S_HDMV/PGS
Codec ID/Info : The same subtitle format used on BDs/HD-DVDs
Title : En
fac2be473190fc922a398c18e855d12bb24e4fa0Ученик мастера / Tai Chi 0 (Стивен Фанг, боевик, драма, 2012) [BDRip 720p, Дублированный, субтитры] Ученик мастера / Tai Chi 0 (Стивен Фанг, боевик, драма, 2012) [BDRip 720p, Дублированный, субтитры] " />

Аплоадер: Админ, дата: 28-09-2013, 13:05, торрент скачан: 359 раз

Понравилась раздача? Посмотрите эти:
  • Сезон убийц / Killing Season (Марк Стивен Джонсон, триллер, драма, боевик, ...
  • Каньоны / The Canyons (Пол Шредер, триллер, драма, 2013) [BDRip AVC, Дублир ...
  • Погнали! / Getaway (Кортни Соломон, боевик, криминал, 2013) [BDRip 720p, Пр ...
  • Ученик мастера / Tai Chi 0 (Стивен Фанг, боевик, драма, 2012) [HDRip Профес ...
  • Ученик мастера / Tai Chi 0 (Стивен Фанг, Боевик, драма, 2012) [HDRip, Профе ...
  • Ученик мастера / Tai Chi 0 (Стивен Фанг, Боевик, драма, 2012) [DVDRip, Дубл ...
  • Ученик мастера / Tai Chi 0 (Стивен Фанг, Боевик, драма, 2012) [BDRip-AVC, П ...
  • Ученик мастера / Tai Chi 0 (Стивен Фанг, Боевик, драма, 2012) [HDRip-AVC, П ...
  • Ученик мастера / Tai Chi 0 (Стивен Фанг, боевик, драма, 2012) [Blu-ray Remu ...
  • Ученик мастера / Tai Chi 0 (Стивен Фанг, боевик, драма, 2012) [BDRip-AVC, Д ...
  • 42 / 42 (Брайан Хелгеленд, Драма, биография, спорт, 2013) [BDRip 720p, Проф ...
  • Хроника / Chronicle (Джошуа Транк, фантастика, боевик, триллер, драма, 2012 ...
  • Тысяча слов / A Thousand Words (Брайан Роббинс, Комедия, драма, 2012) [BDRi ...
  • Тысяча слов / A Thousand Words (Брайан Роббинс, Комедия, драма, 2009) [BDRi ...
  • Суррогат / The Sessions (Бен Луин, драма, 2012) [BDRip 720p, Профессиональн ...
  • Зубная фея 2 / Tooth Fairy 2 (Алекс Замм, комедия, семейный, 2012) [BDRip 7 ...
  • Мачо и ботан / 21 Jump Street (Фил Лорд, Крис Миллер, боевик, комедия, 2012 ...
  • Ворон / The Raven (Джеймс МакТиг, Триллер, детектив, 2012) [BDRip 720p, Дуб ...
  • Mylene Farmer / Du Temps [2011, Pop, HDTVRip]
  • Mylene Farmer / Bleu Noir [2011, Pop, HDTVRip]
  • Информация
    Посетители, находящиеся в группе Гости, не могут оставлять комментарии к данной публикации.