вход на сайт

Имя пользователя :
Пароль :

Восстановление пароля Регистрация
Околофутбола (Антон Борматов, драма, криминал, 2013) [BDRip 720p, Не требуется]
Рейтинг:
(голосов: 1)



[img]{THEME}/images/logopost.png[/img]



Околофутбола
«Нас не изменить!»

Год выпуска: 2013
Страна: Россия
Производство: Фонд кино
Жанр: драма, криминал

Режиссёр: Антон Борматов
В ролях: Александр Ратников, Иван Фоминов, Григорий Иванец, Павел Ерлыков, Дарья Мингазетдинова, Юлия Маньковская, Евгений Березин, Никита Кукушкин, Сергей Шнырев, Максим Павлов

Перевод: Не требуется
Субтитры: нет

Описание: Фильм о самой закрытой части футбольных болельщиков — околофутбольных хулиганах. Они — самые агрессивные и жестокие представители мира футбольных фанатов. Они — элита околофутбола. Кем бы они ни были в обычной жизни — студентами или банкирами, музыкантами или автомеханиками, на самом деле все они — одна «фирма». Попасть в «фирму» очень сложно, но если ты в ней оказался — это на всю жизнь. И обратного пути нет.



премьера (мир):26 сентября 2013
премьера (РФ):26 сентября 2013, «Наше Кино»

Качество: BDRip 720p
Продолжительность: 01:36:49

Формат: MKV
Видео кодек: H.264
Аудио кодек: AC3, DTS
Видео: 1280x720 (16:9), 24,000 fps, H.264 ~5014 kbps avg, 0.227 bit/pixel
Аудио#1: 48 kHz, AC3, 6 ch, ~448.00 kbps avg
Аудио#2: 48 kHz, DTS, 6 ch, ~1509.00 kbps avg
Media Info ▼Формат : Matroska
Версия формата : Version 2
Размер файла : 4,81 Гбайт
Продолжительность : 1 ч. 36 м.
Общий поток : 7113 Кбит/сек
Дата кодирования : UTC 2013-11-16 05:23:08
Программа кодирования : mkvmerge v6.3.0 (You cant stop me!) built on Jun 28 2013 20:09:41
Библиотека кодирования : libebml v1.3.0 + libmatroska v1.4.0

Видео
Идентификатор : 1
Формат : AVC
Формат/Информация : Advanced Video Codec
Профиль формата : [email protected]
Параметр CABAC формата : Да
Параметр ReFrames формата : 9 кадров
Идентификатор кодека : V_MPEG4/ISO/AVC
Продолжительность : 1 ч. 36 м.
Битрейт : 5014 Кбит/сек
Ширина : 1280 пикселей
Высота : 720 пикселей
Соотношение сторон : 16:9
Режим частоты кадров : Постоянный
Частота кадров : 24,000 кадра/сек
Цветовое пространство : YUV
Субдискретизация насыщенности : 4:2:0
Битовая глубина : 8 бит
Тип развёртки : Прогрессивная
Бит/(Пиксели*Кадры) : 0.227
Размер потока : 3,39 Гбайт (70%)
Заголовок : Okolofootboll.2013.720p.BluRay.Rus
Библиотека кодирования : x264 core 138 r2359+704+48 3f879a0 tMod [[email protected] X86_64]
Настройки программы : cabac=1 / ref=9 / deblock=1:-3:-3 / analyse=0x3:0x133 / me=umh / subme=11 / psy=1 / fade_compensate=0.00 / psy_rd=1.00:0.00 / mixed_ref=1 / me_range=32 / chroma_me=1 / trellis=2 / 8x8dct=1 / cqm=0 / deadzone=21,11 / fast_pskip=0 / chroma_qp_offset=-2 / threads=12 / lookahead_threads=2 / sliced_threads=0 / nr=0 / decimate=1 / interlaced=0 / bluray_compat=0 / constrained_intra=0 / fgo=0 / bframes=7 / b_pyramid=2 / b_adapt=2 / b_bias=0 / direct=1 / weightb=1 / open_gop=0 / weightp=2 / keyint=240 / keyint_min=24 / scenecut=40 / intra_refresh=0 / rc_lookahead=60 / rc=crf / mbtree=0 / crf=17.7000 / qcomp=0.60 / qpmin=0:0:0 / qpmax=69:69:69 / qpstep=4 / vbv_maxrate=50000 / vbv_bufsize=62500 / crf_max=0.0 / nal_hrd=none / ip_ratio=1.30 / pb_ratio=1.20 / aq=2:0.80 / aq-sensitivity=10.00 / aq-factor=1.00:1.00:1.00 / aq2=0 / aq3=0
Язык : Russian
Default : Да
Forced : Нет
Основные цвета : BT.709
Характеристики трансфера : BT.709
Коэффициенты матрицы : BT.709

Аудио #1
Идентификатор : 2
Формат : AC-3
Формат/Информация : Audio Coding 3
Расширение режима : CM (complete main)
Параметр Endianness формата : Big
Идентификатор кодека : A_AC3
Продолжительность : 1 ч. 36 м.
Вид битрейта : Постоянный
Битрейт : 448 Кбит/сек
Каналы : 6 каналов
Расположение каналов : Front: L C R, Side: L R, LFE
Частота : 48,0 КГц
Битовая глубина : 16 бит
Метод сжатия : С потерями
Размер потока : 310 Мбайт (6%)
Язык : Russian
Default : Да
Forced : Нет

Аудио #2
Идентификатор : 3
Формат : DTS
Формат/Информация : Digital Theater Systems
Режим : 16
Параметр Endianness формата : Big
Идентификатор кодека : A_DTS
Продолжительность : 1 ч. 36 м.
Вид битрейта : Постоянный
Битрейт : 1509 Кбит/сек
Каналы : 6 к
039bf7ce82fa173ad1f8ae788e74e8ee7a88df9fОколофутбола (Антон Борматов, драма, криминал, 2013) [BDRip 720p, Не требуется] Околофутбола (Антон Борматов, драма, криминал, 2013) [BDRip 720p, Не требуется] " />

Аплоадер: Админ, дата: 16-11-2013, 14:58, торрент скачан: 359 раз

Понравилась раздача? Посмотрите эти:
  • Интерны // Эпизод 181. Новогодний выпуск (Комедия, 2013) [WEB-DL 720p, Не т ...
  • Джобс: Империя соблазна / jOBS (Джошуа Майкл Штерн, драма, биография, 2013) ...
  • Одноклассники 2 / Grown Ups 2 (Деннис Дуган, комедия, 2013) [BDRip 1080p, Д ...
  • Околофутбола (Антон Борматов, драма, криминал, 2013) [BDRip-AVC, Не требует ...
  • Погнали! / Getaway (Кортни Соломон, боевик, криминал, 2013) [BDRip 1080p, П ...
  • Околофутбола (Антон Борматов, Драма, криминал, 2013) [BDRip, Перевод не тре ...
  • Околофутбола (Антон Борматов, драма, криминал, 2013) [DVD9, Не требуется]
  • Околофутбола (Антон Борматов, драма, криминал, 2013) [DVDRip, Не требуется] ...
  • Околофутбола (Антон Борматов, драма, криминал, 2013) [DVDRip-AVC, Не требуе ...
  • Околофутбола (Антон Борматов, драма, криминал, 2013) [DVDRip, Не требуется] ...
  • Эффект колибри / Hummingbird (Стивен Найт, триллер, драма, криминал, боевик ...
  • Околофутбола (Антон Борматов, драма, криминал, 2013) [HDTVRip, Не требуется ...
  • Околофутбола (Антон Борматов, драма, криминал, 2013) [HDTVRip, Не требуется ...
  • Иллюзия обмана / Now You See Me [Extended Cut] (Луи Летерье, триллер, крими ...
  • Заклятие / The Conjuring (Джеймс Ван, ужасы, триллер, 2013) [BDRip 720р, Ду ...
  • Заклятие / The Conjuring (Джеймс Ван, ужасы, триллер, 2013) [BDRip 1080p, Д ...
  • Лавлэйс / Lovelace (Роб Эпштейн, Джеффри Фридман, драма, биография, 2013) [ ...
  • Лучшее предложение / La migliore offerta / The Best Offer (Джузеппе Торнато ...
  • Стукач / Snitch (Рик Роман Во, Триллер, драма, криминал, 2013) [BDRip 720p, ...
  • Чемпионат Англии 2012-2013 / 25-й тур / Обзор / Суббота / BBC Sport [2013 г ...
  • Информация
    Посетители, находящиеся в группе Гости, не могут оставлять комментарии к данной публикации.