вход на сайт

Имя пользователя :
Пароль :

Восстановление пароля Регистрация
Как поймать перо Жар-Птицы (Георгий Гитис, Вячеслав Плотников, мультфильм, фэнтези, 2013) [BDRip 1080p, Не требуется]
Рейтинг:
(голосов: 1)



[img]{THEME}/images/logopost.png[/img]



Как поймать перо Жар-Птицы

Год выпуска: 2013
Страна: Россия
Производство: Руссобит-М
Жанр: мультфильм, фэнтези

Режиссёр: Георгий Гитис, Вячеслав Плотников
В ролях: Михаил Озеров, Дмитрий Дюжев, Юлия Савичева, Андрей Леонов, Нонна Гришаева, Алексей Колган, Михаил Хрусталев, Анатолий Петров, Юлия Галдун, Владимир Горбунов

Перевод: Не требуется
Субтитры: Нет

Описание: Во исполнение воли царя Берендея, младший сын его Иван отправляется на поиски диковинной Жар-птицы. В поисках удачи Ивана Царевича сопровождает верный друг и помощник — Серый Волк, который, обладает всевозможными навыками и всегда спешит на помощь простодушному Ивану. Героев ждут увлекательные и опасные приключения, козни коварных братьев Ивана и его судьбоносная встреча с Еленой Прекрасной. Юные зрители погрузятся в волшебный мир русской сказки, с её традициями и характерной эстетикой, причудливо перемежающейся с приметами современного жанрового кино. Ну, а родители оценят актуальный юмор и модную современную музыку, написанную специально для фильма популярными рок-музыкантами.Релиз от:
Автор рипа: avproh

Сэмпл

Качество: BDRip 1080p / Blu-ray 1080p
Продолжительность: 01:08:41

Формат: MKV
Видео кодек: AVC
Аудио кодек: AC-3
Видео: 1920x1080 (16:9), 24.000 fps, H264 ~8669 kbps avg, 0.174 bit/pixel
Аудио: Русский 48 kHz, АС3, 6 ch, 448.00 kbps Constant
Дополнительно: Фильм разбит на главы, как на оригинальном Blu-ray диске.

Дата премьеры (мир): 24 октября 2013
Дата премьеры (РФ): 24 октября 2013, «Наше Кино»

"MI" ▼Общее
Полное имя : Kak.poimat.pero.Jar-Ptitsy.2013.O.BDRip.1080p_[New-Team]_by_avproh.mkv
Формат : Matroska
Версия формата : Version 4 / Version 2
Размер файла : 4,37 Гбайт
Продолжительность : 1 ч. 8 м.
Общий поток : 9116 Кбит/сек
Дата кодирования : UTC 2013-11-30 01:00:40
Программа кодирования : mkvmerge v6.5.0 (Isnt she lovely) built on Oct 20 2013 12:50:05
Библиотека кодирования : libebml v1.3.0 + libmatroska v1.4.1

Видео
Идентификатор : 1
Формат : AVC
Формат/Информация : Advanced Video Codec
Профиль формата : [email protected]
Параметр CABAC формата : Да
Параметр ReFrames формата : 4 кадра
Идентификатор кодека : V_MPEG4/ISO/AVC
Продолжительность : 1 ч. 8 м.
Битрейт : 8669 Кбит/сек
Ширина : 1920 пикселей
Высота : 1080 пикселей
Соотношение сторон : 16:9
Режим частоты кадров : Постоянный
Частота кадров : 24,000 кадра/сек
Цветовое пространство : YUV
Субдискретизация насыщенности : 4:2:0
Битовая глубина : 8 бит
Тип развёртки : Прогрессивная
Бит/(Пиксели*Кадры) : 0.174
Размер потока : 4,07 Гбайт (93%)
Библиотека кодирования : x264 core 138 r2356 a1d3d17
Настройки программы : cabac=1 / ref=4 / deblock=1:-3:-3 / analyse=0x3:0x113 / me=umh / subme=10 / psy=1 / psy_rd=1.00:0.05 / mixed_ref=1 / me_range=32 / chroma_me=1 / trellis=2 / 8x8dct=1 / cqm=0 / deadzone=21,11 / fast_pskip=0 / chroma_qp_offset=-3 / threads=9 / lookahead_threads=1 / sliced_threads=0 / nr=0 / decimate=0 / interlaced=0 / bluray_compat=0 / constrained_intra=0 / bframes=8 / b_pyramid=2 / b_adapt=2 / b_bias=0 / direct=3 / weightb=1 / open_gop=0 / weightp=2 / keyint=240 / keyint_min=24 / scenecut=40 / intra_refresh=0 / rc_lookahead=40 / rc=2pass / mbtree=1 / bitrate=8669 / ratetol=1.0 / qcomp=0.60 / qpmin=0 / qpmax=69 / qpstep=4 / cplxblur=20.0 / qblur=0.5 / ip_ratio=1.40 / aq=1:1.00
Язык : Russian
Default : Да
Forced : Нет

Аудио
Идентификатор : 2
Формат : AC-3
Формат/Информация : Audio Coding 3
Расширение режима : CM (complete main)
Параметр Endianness формата : Big
Идентификатор кодека : A_AC3
Продолжительность : 1 ч. 8 м.
Вид битрейта : Постоянный
Битрейт : 448 Кбит/сек
Каналы : 6 каналов
Расположение каналов : Front: L C R, Side: L R, LFE
Частота : 48,0 КГц
Битовая глубина : 16 бит
Метод сжатия : С потерями
Размер потока : 220 Мбайт (5%)
Язык : Russian
Default : Да
Forced : Нет

Меню
00:00:00.000 : en:00:00:00.000
00:08:01.625 : en:00:08:01.6
db76b961556d0f2d6a80fbd58daeb4e7c931df8dКак поймать перо Жар-Птицы (Георгий Гитис, Вячеслав Плотников, мультфильм, фэнтези, 2013) [BDRip 1080p, Не требуется] Как поймать перо Жар-Птицы (Георгий Гитис, Вячеслав Плотников, мультфильм, фэнтези, 2013) [BDRip 1080p, Не требуется] " />

Аплоадер: Админ, дата: 30-11-2013, 10:54, торрент скачан: 359 раз

Понравилась раздача? Посмотрите эти:
  • Одноклассники 2 / Grown Ups 2 (Деннис Дуган, комедия, 2013) [BDRip 1080p, Д ...
  • Погнали! / Getaway (Кортни Соломон, боевик, криминал, 2013) [BDRip 1080p, П ...
  • Как поймать перо Жар-Птицы (Георгий Гитис, Вячеслав Плотников, мультфильм, ...
  • Как поймать перо Жар-Птицы (Георгий Гитис, Вячеслав Плотников, Мультфильм, ...
  • Как поймать перо Жар-Птицы (Георгий Гитис, Вячеслав Плотников, мультфильм, ...
  • Как поймать перо Жар-Птицы (Георгий Гитис, Вячеслав Плотников, мультфильм, ...
  • Как поймать перо Жар-Птицы (Георгий Гитис, Вячеслав Плотников, мультфильм, ...
  • Как поймать перо Жар-Птицы (Георгий Гитис, Вячеслав Плотников, мультфильм, ...
  • Как поймать перо Жар-Птицы (Георгий Гитис, Вячеслав Плотников, мультфильм, ...
  • Как поймать перо Жар-Птицы (Георгий Гитис, Вячеслав Плотников, мультфильм, ...
  • Византия / Byzantium (Нил Джордан, Фэнтези, триллер, драма, 2012) [BDRip 10 ...
  • Интимные места (Наталья Меркулова, Алексей Чупов, драма, мелодрама, 2013) [ ...
  • Заклятие / The Conjuring (Джеймс Ван, ужасы, триллер, 2013) [BDRip 720р, Ду ...
  • Заклятие / The Conjuring (Джеймс Ван, ужасы, триллер, 2013) [BDRip 1080p, Д ...
  • Возвращение Буратино (Екатерина Михайлова, Мультфильм, приключения, семейны ...
  • Чемпионат Англии 2012-2013 / 25-й тур / Обзор / Суббота / BBC Sport [2013 г ...
  • Иван Царевич и Серый Волк (Владимир Торопчин, мультфильм, семейный, 2011) [ ...
  • Скрат: Потерянный орех / Scrat: Gone Nutty (Карлос Салдана, короткометражка ...
  • Лоракс: Серенада / The Lorax: Serenade (Кайл Балда, мультфильм, комедия, му ...
  • [Тизер] Иван Царевич и Жар-птица (Вячеслав Плотников, мультфильм, фэнтези ...
  • Информация
    Посетители, находящиеся в группе Гости, не могут оставлять комментарии к данной публикации.