вход на сайт

Имя пользователя :
Пароль :

Восстановление пароля Регистрация
Элизиум. Рай не на земле / Elysium (Нил Бломкамп, Фантастика, боевик, триллер, драма, 2013) [BDRip 1080p, Профессиональный (полное дублирование) + Ukrainian + Оригинал (Английский) + Субтитры]
Рейтинг:
(голосов: 1)



[img]{THEME}/images/logopost.png[/img]



Элизиум. Рай не на земле / Elysium

Год выпуска: 2013
Страна: США
Производство: Sony Pictures Entertainment (SPE)
Жанр: Фантастика, боевик, триллер, драма

Режиссёр: Нил Бломкамп
В ролях: Мэтт Дэймон, Джоди Фостер, Шарлто Копли, Алиси Брага, Диего Луна, Вагнер Моура, Уильям Фихтнер, Карли Поуп, Майкл Шэнкс, Талиса Сото

Перевод: Профессиональный (полное дублирование) + Ukrainian + Оригинал (Английский)
Субтитры: Русские, английские

Описание: В 2154 году существует два класса людей: очень богатые, живущие на чистой, созданной руками человека, космической станции под названием Элизиум и остальные, живущие на перенаселённой разрушенной Земле. Безжалостный правительственный чиновник Министр Роудс не остановится ни перед чем для применения анти-иммиграционных законов и сохранения роскошного образа жизни граждан Элизиума. Когда неудачника Макса загоняют в угол, он соглашается взять на себя сложную миссию, которая в случае успеха не только спасёт ему жизнь, но и может привести к равенству этих поляризованных миров.Сэмпл

Качество: BDRip 1080p
Продолжительность: 01:49:35

Формат: MKV
Видео кодек: AVC
Аудио кодек: AC3, DTS
Видео: MPEG-4 AVC, 12.3 Мбит/с, 1920x804, (2,40:1), 23,976 кадра/сек, 0.332 Бит/(Пиксели*Кадры)
Аудио 1: Русский - AC3, 6 ch, 640 Кбит/с, 48.0 KHz [BD CEE]
Аудио 2: Украинский - AC3, 6 ch, 640 Кбит/с, 48.0 KHz
Аудио 3: Английский - DTS, 6 ch, 1510 Кбит/с, 48.0 KHz

"MI" ▼Общее
Уникальный идентификатор : 185832447686545637413334468547658182257 (0x8BCE070E6C514A7DBF3392BE6D28EE71)
Полное имя : C:ЗагрузкиElysium.2013.1080p_CMEGRoup.mkv
Формат : Matroska
Версия формата : Version 2
Размер файла : 11,5 Гбайт
Продолжительность : 1 ч. 49 м.
Общий поток : 15,1 Мбит/сек
Название фильма : Elysium (2013) - Release CMEGRoup
Дата кодирования : UTC 2013-11-26 06:41:37
Программа кодирования : mkvmerge v6.3.0 (You cant stop me!) built on Jun 28 2013 20:09:41
Библиотека кодирования : libebml v1.3.0 + libmatroska v1.4.0

Видео
Идентификатор : 1
Формат : AVC
Формат/Информация : Advanced Video Codec
Профиль формата : [email protected]
Параметр CABAC формата : Да
Параметр ReFrames формата : 4 кадра
Идентификатор кодека : V_MPEG4/ISO/AVC
Продолжительность : 1 ч. 49 м.
Битрейт : 12,3 Мбит/сек
Ширина : 1920 пикселей
Высота : 804 пикселя
Соотношение сторон : 2,40:1
Режим частоты кадров : Постоянный
Частота кадров : 23,976 кадра/сек
Цветовое пространство : YUV
Субдискретизация насыщенности : 4:2:0
Битовая глубина : 8 бит
Тип развёртки : Прогрессивная
Бит/(Пиксели*Кадры) : 0.332
Размер потока : 9,18 Гбайт (80%)
Заголовок : Release CMEGRoup
Библиотека кодирования : x264 core 133 r2334 a3ac64b
Настройки программы : cabac=1 / ref=4 / deblock=1:-3:-3 / analyse=0x3:0x113 / me=umh / subme=11 / psy=1 / psy_rd=1.00:0.00 / mixed_ref=1 / me_range=48 / chroma_me=1 / trellis=2 / 8x8dct=1 / cqm=0 / deadzone=21,11 / fast_pskip=1 / chroma_qp_offset=-2 / threads=12 / lookahead_threads=1 / sliced_threads=0 / nr=0 / decimate=1 / interlaced=0 / bluray_compat=0 / constrained_intra=0 / bframes=5 / b_pyramid=2 / b_adapt=1 / b_bias=0 / direct=2 / weightb=1 / open_gop=0 / weightp=2 / keyint=240 / keyint_min=23 / scenecut=40 / intra_refresh=0 / rc_lookahead=40 / rc=2pass / mbtree=1 / bitrate=12300 / ratetol=1.0 / qcomp=0.60 / qpmin=10 / qpmax=51 / qpstep=4 / cplxblur=20.0 / qblur=0.5 / vbv_maxrate=62500 / vbv_bufsize=78125 / nal_hrd=none / ip_ratio=1.40 / aq=1:1.00 / zones=148974,157654,q=40
Язык : English
Default : Да
Forced : Нет

Аудио #1
Идентификатор : 2
Формат : AC-3
Формат/Информация : Audio Coding 3
Расширение режима : CM (complete main)
Параметр Endianness формата : Big
Идентификатор кодека : A_AC3
Продолжительность : 1 ч. 49 м.
Вид битрейта : Постоянный
Битрейт : 640 Кбит/сек
Каналы : 6 каналов
Расположение каналов : Front: L C R, Side: L R, LFE
Частота : 48,0 КГц
Битовая глубина : 16 бит
Метод сжатия : С потерями
Размер потока : 502 Мбай
67d3ef17fa13aca2c02e811ecd17f4456d38d5c2Элизиум. Рай не на земле / Elysium (Нил Бломкамп, Фантастика, боевик, триллер, драма, 2013) [BDRip 1080p, Профессиональный (полное дублирование) + Ukrainian + Оригинал (Английский) + Субтитры] Элизиум. Рай не на земле / Elysium (Нил Бломкамп, Фантастика, боевик, триллер, драма, 2013) [BDRip 1080p, Профессиональный (полное дублирование) + Ukrainian + Оригинал (Английский) + Субтитры] " />

Аплоадер: Админ, дата: 26-11-2013, 20:48, торрент скачан: 359 раз

Понравилась раздача? Посмотрите эти:
  • Одноклассники 2 / Grown Ups 2 (Деннис Дуган, комедия, 2013) [BDRip 1080p, Д ...
  • Погнали! / Getaway (Кортни Соломон, боевик, криминал, 2013) [BDRip 1080p, П ...
  • Элизиум. Рай не на земле / Elysium (Нил Бломкамп, Фантастика, боевик, трилл ...
  • Элизиум. Рай не на земле / Elysium (Нил Бломкамп, Фантастика, боевик, трилл ...
  • Элизиум: Рай не на Земле / Elysium (Нил Бломкамп, фантастика, боевик, трилл ...
  • Элизиум. Рай не на земле / Elysium (Нил Бломкамп, Фантастика, боевик, трилл ...
  • Элизиум: Рай не на Земле / Elysium (Нил Бломкамп, фантастика, боевик, трилл ...
  • Элизиум. Рай не на земле / Elysium (Нил Бломкамп, Фантастика, боевик, трилл ...
  • Элизиум: Рай не на Земле / Elysium (Нил Бломкамп, фантастика, боевик, трилл ...
  • Элизиум: Рай не на Земле / Elysium (Нил Бломкамп, фантастика, боевик, трилл ...
  • Элизиум: Рай не на Земле / Elysium (Нил Бломкамп, фантастика, боевик, трилл ...
  • Заклятие / The Conjuring (Джеймс Ван, ужасы, триллер, 2013) [BDRip 1080p, Д ...
  • Война миров Z / World War Z [Theatrical Cut] (Марк Форстер, ужасы, фантасти ...
  • Исходный код / Source Code (Дункан Джонс, фантастика, боевик, триллер, драм ...
  • [Трейлер #2] Элизиум / Elysium (Нил Бломкамп, Фантастика, боевик) [HDRip, О ...
  • Даю год / I Give It a Year (Дэн Мазер, мелодрама, комедия, 2012) [BDRip-AVC ...
  • [Трейлер] Элизиум / Elysium (Нил Бломкамп, Фантастика, боевик) [HDTVRip 108 ...
  • Заражение / Contagion (Стивен Содерберг, Фантастика, 2011) [BDRip 1080p, Пр ...
  • Мстители / The Avengers (Джосс Уидон, фантастика, боевик, триллер, 2012) [B ...
  • Петля времени / Looper (Райан Джонсон, Фантастика, боевик, триллер, кримина ...
  • Информация
    Посетители, находящиеся в группе Гости, не могут оставлять комментарии к данной публикации.