вход на сайт

Имя пользователя :
Пароль :

Восстановление пароля Регистрация
Элизиум: Рай не на Земле / Elysium (Нил Бломкамп, фантастика, боевик, триллер, драма, 2013) [BDRip 720p, Дублированный, Ukrainian, Оригинал (Английский), субтитры]
Рейтинг:
(голосов: 1)



[img]{THEME}/images/logopost.png[/img]



Элизиум: Рай не на Земле / Elysium


Год выпуска: 2013
Страна: США
Производство: Media Rights Capital
Жанр: фантастика, боевик, триллер, драма

Режиссёр: Нил Бломкамп
В ролях: Мэтт Дэймон, Джоди Фостер, Брэндон Оре, Алиса Брага, Соня Брага, Хосе Пабло Кантильо, Шарлто Коупли, Клод Дюамель, Уильям Фихтнер, Эдриэн Холмс, Диего Луна, Майкл Мэндо, Вагнер Мора, Карли Поуп, Майкл Шэнкс, Талиса Сото, Фаран Тахир

Перевод: Дублированный, Ukrainian, Оригинал (Английский)
Субтитры: Russian, English

Описание:В 2154 году существует два класса людей: очень богатые, живущие на чистой, созданной руками человека, космической станции под названием Элизиум и остальные, живущие на перенаселённой разрушенной Земле. Безжалостный правительственный чиновник, амбициозная министр обороны Делакур, не остановится ни перед чем для применения анти-иммиграционных законов и сохранения роскошного образа жизни граждан Элизиума. Когда неудачника Макса загоняют в угол, он соглашается взять на себя сложную миссию, которая в случае успеха не только спасёт ему жизнь, но и может привести к равенству этих поляризованных миров.



премьера (мир):7 августа 2013
премьера (РФ):8 августа 2013, «WDSSPR»

Качество: BDRip 720p
Продолжительность: 01:49:04

Формат: MKV
Видео кодек: H.264
Аудио кодек: AC3, DTS
Видео: 1280x536 (2.40:1), 23.976 fps, H.264 ~5 033 kbps avg, 0.306 bit/pixel
Аудио#1: 48 kHz, AC3, 6 ch, ~640 kbps avg Russian
Аудио#2: 48 kHz, AC3, 6 ch, ~640 kbps avg Ukrainian (дубляж)
Аудио#3: 48 kHz, DTS, 6 ch, ~1 510 kbps avg English

Media Info ▼Формат : Matroska
Версия формата : Version 2
Размер файла : 5,99 Гбайт
Продолжительность : 1 ч. 49 м.
Общий поток : 7824 Кбит/сек
Название фильма : Elysium (2013)
Дата кодирования : UTC 2013-11-26 05:57:21
Программа кодирования : mkvmerge v6.3.0 (You cant stop me!) built on Jun 28 2013 20:09:41
Библиотека кодирования : libebml v1.3.0 + libmatroska v1.4.0

Видео
Идентификатор : 1
Формат : AVC
Формат/Информация : Advanced Video Codec
Профиль формата : [email protected]
Параметр CABAC формата : Да
Параметр ReFrames формата : 11 кадров
Идентификатор кодека : V_MPEG4/ISO/AVC
Продолжительность : 1 ч. 49 м.
Битрейт : 5033 Кбит/сек
Ширина : 1280 пикселей
Высота : 536 пикселей
Соотношение сторон : 2,40:1
Режим частоты кадров : Постоянный
Частота кадров : 23,976 кадра/сек
Цветовое пространство : YUV
Субдискретизация насыщенности : 4:2:0
Битовая глубина : 8 бит
Тип развёртки : Прогрессивная
Бит/(Пиксели*Кадры) : 0.306
Размер потока : 3,73 Гбайт (62%)
Заголовок : [email protected]
Библиотека кодирования : x264 core 138 r2356 a1d3d17
Настройки программы : cabac=1 / ref=11 / deblock=1:-3:-3 / analyse=0x3:0x113 / me=umh / subme=10 / psy=1 / psy_rd=1.00:0.05 / mixed_ref=1 / me_range=32 / chroma_me=1 / trellis=2 / 8x8dct=1 / cqm=0 / deadzone=21,11 / fast_pskip=0 / chroma_qp_offset=-2 / threads=18 / lookahead_threads=1 / sliced_threads=0 / nr=0 / decimate=1 / interlaced=0 / bluray_compat=0 / constrained_intra=0 / bframes=4 / b_pyramid=2 / b_adapt=2 / b_bias=0 / direct=3 / weightb=1 / open_gop=0 / weightp=2 / keyint=250 / keyint_min=23 / scenecut=40 / intra_refresh=0 / rc=2pass / mbtree=0 / bitrate=5033 / ratetol=1.0 / qcomp=0.70 / qpmin=0 / qpmax=69 / qpstep=4 / cplxblur=20.0 / qblur=0.5 / ip_ratio=1.40 / pb_ratio=1.30 / aq=2:1.00
Язык : English
Default : Да
Forced : Нет

Аудио #1
Идентификатор : 2
Формат : AC-3
Формат/Информация : Audio Coding 3
Расширение режима : CM (complete main)
Параметр Endianness формата : Big
Идентификатор кодека : A_AC3
Продолжительность : 1 ч. 49 м.
Вид битрейта : Постоянный
Битрейт : 640 Кбит/сек
Каналы : 6 каналов
Расположение каналов : Front: L C R, Side: L R, LFE
Частота : 48,0 КГц
Битовая глубина : 16 бит
Метод сжатия : С потерями
Размер потока : 502 Мбайт (8%)
Язык : Russian
Default : Да
Forced : Нет

Аудио #2
Идентификатор : 3
Формат : AC-3
Формат/Информация : Audio Coding 3
Расширение режима
540e0a258d99e86988bd6a7c325985eb634bb28aЭлизиум: Рай не на Земле / Elysium (Нил Бломкамп, фантастика, боевик, триллер, драма, 2013) [BDRip 720p, Дублированный, Ukrainian, Оригинал (Английский), субтитры] Элизиум: Рай не на Земле / Elysium (Нил Бломкамп, фантастика, боевик, триллер, драма, 2013) [BDRip 720p, Дублированный, Ukrainian, Оригинал (Английский), субтитры] " />

Аплоадер: Админ, дата: 26-11-2013, 19:16, торрент скачан: 359 раз

Понравилась раздача? Посмотрите эти:
  • Джобс: Империя соблазна / jOBS (Джошуа Майкл Штерн, драма, биография, 2013) ...
  • Одноклассники 2 / Grown Ups 2 (Деннис Дуган, комедия, 2013) [BDRip 1080p, Д ...
  • Погнали! / Getaway (Кортни Соломон, боевик, криминал, 2013) [BDRip 1080p, П ...
  • Элизиум. Рай не на земле / Elysium (Нил Бломкамп, Фантастика, боевик, трилл ...
  • Элизиум. Рай не на земле / Elysium (Нил Бломкамп, Фантастика, боевик, трилл ...
  • Элизиум. Рай не на земле / Elysium (Нил Бломкамп, Фантастика, боевик, трилл ...
  • Элизиум. Рай не на земле / Elysium (Нил Бломкамп, Фантастика, боевик, трилл ...
  • Элизиум: Рай не на Земле / Elysium (Нил Бломкамп, фантастика, боевик, трилл ...
  • Элизиум. Рай не на земле / Elysium (Нил Бломкамп, Фантастика, боевик, трилл ...
  • Элизиум: Рай не на Земле / Elysium (Нил Бломкамп, фантастика, боевик, трилл ...
  • Элизиум: Рай не на Земле / Elysium (Нил Бломкамп, фантастика, боевик, трилл ...
  • Элизиум: Рай не на Земле / Elysium (Нил Бломкамп, фантастика, боевик, трилл ...
  • Иллюзия обмана / Now You See Me [Extended Cut] (Луи Летерье, триллер, крими ...
  • Заклятие / The Conjuring (Джеймс Ван, ужасы, триллер, 2013) [BDRip 720р, Ду ...
  • Заклятие / The Conjuring (Джеймс Ван, ужасы, триллер, 2013) [BDRip 1080p, Д ...
  • Копы в юбках / The Heat [UNRATED] (Пол Фиг, комедия, криминал, боевик, дете ...
  • Война миров Z / World War Z [Theatrical Cut] (Марк Форстер, ужасы, фантасти ...
  • [Трейлер #2] Элизиум / Elysium (Нил Бломкамп, Фантастика, боевик) [HDRip, О ...
  • [Трейлер] Элизиум / Elysium (Нил Бломкамп, Фантастика, боевик) [HDTVRip 108 ...
  • Невероятный Халк / The Incredible Hulk (Луи Летерье, фантастика, боевик, тр ...
  • Информация
    Посетители, находящиеся в группе Гости, не могут оставлять комментарии к данной публикации.