вход на сайт

Имя пользователя :
Пароль :

Восстановление пароля Регистрация
Конец света 2013: Апокалипсис по-голливудски / This Is the End (Сет Роген, Эван Голдберг, комедия, фэнтези, 2013) [BDRip 1080р, Дублированный, Оригинал (Английский), субтитры]
Рейтинг:
(голосов: 1)



[img]{THEME}/images/logopost.png[/img]



Конец света 2013: Апокалипсис по-голливудски / This Is the End
«Ending Summer 2013»

Год выпуска: 2013
Страна: США, Франция
Производство: Mandate Pictures
Жанр: комедия, фэнтези

Режиссёр: Сет Роген, Эван Голдберг
В ролях: Джеймс Франко, Джона Хилл, Сет Роген, Джей Барушель, Дэнни МакБрайд, Крэйг Робинсон, Майкл Сера, Эмма Уотсон, Минди Калинг, Дэвид Крамхолц

Перевод: Дублированный, Оригинал (Английский)
Субтитры: Russian, English

Описание: Джей Барушель приезжает в Лос-Анджелес, чтобы посетить старого друга и коллегу, актера Сета Рогена, который пригласил Барушеля на новоселье, которое организовывает Джеймс Франко. На не очень приличную вечеринку приехали многие знаменитости. Барушелю неудобно среди такого количества людей, он практически не знает лично таких знаменитостей, как: Джона Хилл, Кристофер Минц-Плассе, Майкл Сера, Крейг Робинсон, Эмма Уотсон и Ченнинг Татум. Роген, чтобы немного успокоить друга, сопровождает его в магазин за сигаретами.

В магазине лучи синего света с неба вдруг унесли несколько покупателей. Перепуганные Роген и Барушель бегут в дом Франко на фоне взрывов, автомобильных аварий, а также массового хаоса, но на вечеринке синие лучи никого не тронули. Подвыпившие гости не верят россказням Барушеля и объявляют его сумасшедшим, но через несколько секунд слышат снаружи грохот…



премьера (мир):3 июня 2013
премьера (РФ):19 сентября 2013, «WDSSPR»


Качество: BDRip 1080р
Продолжительность: 01:46:41

Формат: MKV
Видео кодек: H.264
Аудио кодек: AC3, DTS
Видео: 1920x802 (2,40:1), 23,976 fps, H.264 ~9 118 kbps avg, 0.247 bit/pixel
Аудио#1: 48 kHz, AC3, 6 ch, ~640.00 kbps avg Russian
Аудио#2: 48 kHz, DTS, 6 ch, ~1509 kbps avg English
Media Info ▼Формат : Matroska
Версия формата : Version 2
Размер файла : 8,40 Гбайт
Продолжительность : 1 ч. 46 м.
Общий поток : 11,3 Мбит/сек
Дата кодирования : UTC 2013-11-24 17:08:24
Программа кодирования : mkvmerge v6.3.0 (You cant stop me!) built on Jun 28 2013 20:09:41
Библиотека кодирования : libebml v1.3.0 + libmatroska v1.4.0

Видео
Идентификатор : 1
Формат : AVC
Формат/Информация : Advanced Video Codec
Профиль формата : [email protected]
Параметр CABAC формата : Да
Параметр ReFrames формата : 5 кадров
Идентификатор кодека : V_MPEG4/ISO/AVC
Продолжительность : 1 ч. 46 м.
Битрейт : 9118 Кбит/сек
Ширина : 1920 пикселей
Высота : 802 пикселя
Соотношение сторон : 2,40:1
Режим частоты кадров : Постоянный
Частота кадров : 23,976 кадра/сек
Цветовое пространство : YUV
Субдискретизация насыщенности : 4:2:0
Битовая глубина : 8 бит
Тип развёртки : Прогрессивная
Бит/(Пиксели*Кадры) : 0.247
Размер потока : 6,63 Гбайт (79%)
Заголовок : This.Is.the.End.2013.BluRay.1080p.DTS.x264-CHD
Библиотека кодирования : x264 core 138 r2356 a1d3d17
Настройки программы : cabac=1 / ref=5 / deblock=1:-3:-3 / analyse=0x3:0x113 / me=umh / subme=10 / psy=1 / psy_rd=1.00:0.05 / mixed_ref=1 / me_range=32 / chroma_me=1 / trellis=2 / 8x8dct=1 / cqm=0 / deadzone=21,11 / fast_pskip=0 / chroma_qp_offset=-2 / threads=18 / lookahead_threads=1 / sliced_threads=0 / nr=0 / decimate=1 / interlaced=0 / bluray_compat=0 / constrained_intra=0 / bframes=4 / b_pyramid=2 / b_adapt=2 / b_bias=0 / direct=3 / weightb=1 / open_gop=0 / weightp=2 / keyint=250 / keyint_min=23 / scenecut=40 / intra_refresh=0 / rc=2pass / mbtree=0 / bitrate=9118 / ratetol=1.0 / qcomp=0.70 / qpmin=0 / qpmax=69 / qpstep=4 / cplxblur=20.0 / qblur=0.5 / ip_ratio=1.40 / pb_ratio=1.30 / aq=2:1.00
Язык : English
Default : Да
Forced : Да

Аудио #1
Идентификатор : 2
Формат : AC-3
Формат/Информация : Audio Coding 3
Расширение режима : CM (complete main)
Параметр Endianness формата : Big
Идентификатор кодека : A_AC3
Продолжительность : 1 ч. 46 м.
Вид битрейта : Постоянный
Битрейт : 640 Кбит/сек
Каналы : 6 каналов
Расположение каналов : Front: L C R, Side: L R, LFE
Частота : 48,0 КГц
Битовая глубина : 16 бит
Метод сжатия : С потерями
Размер потока : 488 Мбайт (6%)
Язык : Rus
535c19452773782d7ef5e2ad7129a2b1a7821a36Конец света 2013: Апокалипсис по-голливудски / This Is the End (Сет Роген, Эван Голдберг, комедия, фэнтези, 2013) [BDRip 1080р, Дублированный, Оригинал (Английский), субтитры] Конец света 2013: Апокалипсис по-голливудски / This Is the End (Сет Роген, Эван Голдберг, комедия, фэнтези, 2013) [BDRip 1080р, Дублированный, Оригинал (Английский), субтитры] " />

Аплоадер: Админ, дата: 25-11-2013, 00:02, торрент скачан: 359 раз

Понравилась раздача? Посмотрите эти:
  • Va-банк / Runner Runner (Брэд Фурман, триллер, драма, криминал, 2013) [BDRi ...
  • Джобс: Империя соблазна / jOBS (Джошуа Майкл Штерн, драма, биография, 2013) ...
  • Одноклассники 2 / Grown Ups 2 (Деннис Дуган, Комедия, 2013) [BDRip-AVC, Про ...
  • Одноклассники 2 / Grown Ups 2 (Деннис Дуган, комедия, 2013) [BDRip 1080p, Д ...
  • Конец света 2013: Апокалипсис по-голливудски / This Is the End (Сет Роген, ...
  • Конец света 2013: Апокалипсис по-голливудски / This Is the End (Сет Роген, ...
  • Конец света 2013: Апокалипсис по-голливудски / This Is the End (Сет Роген, ...
  • Погнали! / Getaway (Кортни Соломон, боевик, криминал, 2013) [BDRip 1080p, П ...
  • Конец света 2013: Апокалипсис по-голливудски / This Is the End (Сет Роген, ...
  • Конец света 2013: Апокалипсис по-голливудски / This Is the End (Сет Роген, ...
  • Конец света 2013: Апокалипсис по-голливудски / This Is the End(Сет Роген, Э ...
  • Конец света 2013: Апокалипсис по-голливудски / This Is the End (Сет Роген, ...
  • Конец света 2013: Апокалипсис по-голливудски / This Is the End(Сет Роген, Э ...
  • Мальчишник: Часть III / The Hangover Part III (Тодд Филлипс, комедия, 2013) ...
  • Иллюзия обмана / Now You See Me [Extended Cut] (Луи Летерье, триллер, крими ...
  • Иллюзия обмана / Now You See Me [Extended Cut] (Луи Летерье, триллер, крими ...
  • Заклятие / The Conjuring (Джеймс Ван, ужасы, триллер, 2013) [BDRip 720р, Ду ...
  • Заклятие / The Conjuring (Джеймс Ван, ужасы, триллер, 2013) [BDRip 1080p, Д ...
  • Лавлэйс / Lovelace (Роб Эпштейн, Джеффри Фридман, драма, биография, 2013) [ ...
  • [Трейлер] Конец света / This Is the End (Ивэн Голдберг, Сет Роген, боевик, ...
  • Информация
    Посетители, находящиеся в группе Гости, не могут оставлять комментарии к данной публикации.