вход на сайт

Имя пользователя :
Пароль :

Восстановление пароля Регистрация
Одноклассники 2 / Grown Ups 2 (Деннис Дуган, комедия, 2013) [BDRip 1080p, Дублированный, Ukrainian, Оригинал (Английский), субтитры]
Рейтинг:
(голосов: 1)



[img]{THEME}/images/logopost.png[/img]



Одноклассники 2 / Grown Ups 2
«Theyll do anything for their families... except grow up»

Год выпуска: 2013
Страна: США
Производство: Columbia Pictures
Жанр: комедия

Режиссёр: Деннис Дуган
В ролях: Адам Сэндлер, Кевин Джеймс, Крис Рок, Дэвид Спейд, Сальма Хайек, Майя Рудольф, Мария Белло, Ник Свардсон, Стив Бушеми, Колин Куинн

Перевод: Дублированный, Ukrainian, Оригинал (Английский)
Субтитры: Русские, английские

Описание: После того как Ленни Федер переезжает с семьей обратно в родной город, он и его друзья извлекут немало уроков, когда их дети окончат школу…



премьера (мир):11 июля 2013
премьера (РФ):29 августа 2013, «WDSSPR»


Качество: BDRip 1080p
Продолжительность: 01:40:58

Формат: MKV
Видео кодек: H.264
Аудио кодек: AC3, DTS
Видео: 1920x1036 (1.85:1), 23.976 fps fps, H.264 ~11 200 kbps avg, 0.235 bit/pixel
Аудио#1: 48 kHz, AC3, 6 ch, ~640.00 kbps avg Russian
Аудио#2: 48 kHz, AC3, 6 ch, ~640.00 kbps avg Ukrainian
Аудио#2: 48 kHz, DTS, 6 ch, ~1509.00 kbps avg English

Media Info ▼Формат : Matroska
Версия формата : Version 2
Размер файла : 9,85 Гбайт
Продолжительность : 1 ч. 40 м.
Общий поток : 14,0 Мбит/сек
Дата кодирования : UTC 2013-11-21 17:25:08
Программа кодирования : mkvmerge v6.3.0 (You cant stop me!) built on Jun 28 2013 20:09:41
Библиотека кодирования : libebml v1.3.0 + libmatroska v1.4.0

Видео
Идентификатор : 1
Формат : AVC
Формат/Информация : Advanced Video Codec
Профиль формата : [email protected]
Параметр CABAC формата : Да
Параметр ReFrames формата : 4 кадра
Идентификатор кодека : V_MPEG4/ISO/AVC
Продолжительность : 1 ч. 40 м.
Битрейт : 11,2 Мбит/сек
Ширина : 1920 пикселей
Высота : 1036 пикселей
Соотношение сторон : 1,85:1
Режим частоты кадров : Постоянный
Частота кадров : 23,976 кадра/сек
Цветовое пространство : YUV
Субдискретизация насыщенности : 4:2:0
Битовая глубина : 8 бит
Тип развёртки : Прогрессивная
Бит/(Пиксели*Кадры) : 0.235
Размер потока : 7,69 Гбайт (78%)
Заголовок : Grown.Ups.2.2013.1080p.BluRay.x264.DTS-WiKi
Библиотека кодирования : x264 core 129 r2245+704+36 8e61944 tMod+MixAQ [[email protected]:2:0 X86_64]
Настройки программы : cabac=1 / ref=4 / deblock=1:-3:-3 / analyse=0x3:0x133 / me=umh / subme=11 / psy=1 / fade_compensate=0.00 / psy_rd=1.05:0.10 / mixed_ref=1 / me_range=64 / chroma_me=1 / trellis=2 / 8x8dct=1 / cqm=0 / deadzone=21,11 / fast_pskip=0 / chroma_qp_offset=-3 / threads=18 / lookahead_threads=3 / sliced_threads=0 / nr=0 / decimate=0 / interlaced=0 / bluray_compat=0 / constrained_intra=0 / fgo=0 / bframes=8 / b_pyramid=2 / b_adapt=2 / b_bias=0 / direct=3 / weightb=1 / open_gop=0 / weightp=2 / keyint=250 / keyint_min=23 / scenecut=40 / intra_refresh=0 / rc=2pass / mbtree=0 / bitrate=11184 / ratetol=1.0 / qcomp=0.70 / qpmin=0 / qpmax=69 / qpstep=4 / cplxblur=20.0 / qblur=0.5 / ip_ratio=1.40 / pb_ratio=1.30 / aq=3 / aq-strength=0.90 / aq-sensitivity=10.00 / aq-ifactor=1.00 / aq-pfactor=1.00 / aq-bfactor=1.00 / aq2=0
Язык : English
Default : Да
Forced : Да

Аудио #1
Идентификатор : 2
Формат : AC-3
Формат/Информация : Audio Coding 3
Расширение режима : CM (complete main)
Параметр Endianness формата : Big
Идентификатор кодека : A_AC3
Продолжительность : 1 ч. 40 м.
Вид битрейта : Постоянный
Битрейт : 640 Кбит/сек
Каналы : 6 каналов
Расположение каналов : Front: L C R, Side: L R, LFE
Частота : 48,0 КГц
Битовая глубина : 16 бит
Метод сжатия : С потерями
Размер потока : 462 Мбайт (5%)
Язык : Russian
Default : Да
Forced : Нет

Аудио #2
Идентификатор : 3
Формат : AC-3
Формат/Информация : Audio Coding 3
Расширение режима : CM (complete main)
Параметр Endianness формата : Big
Идентификатор кодека : A_AC3
Продолжительность : 1 ч. 40 м.
Вид битрейта : Постоянный
Битрейт : 640 Кбит/сек
Каналы : 6 каналов
Расположение каналов : Front: L C R, Side: L R, LFE
Частота : 48,0 КГц
Битовая глубина : 16 бит
Ме
96eec00562a2d331b1417011b58546b5cd51613fОдноклассники 2 / Grown Ups 2 (Деннис Дуган, комедия, 2013) [BDRip 1080p, Дублированный, Ukrainian, Оригинал (Английский), субтитры] Одноклассники 2 / Grown Ups 2 (Деннис Дуган, комедия, 2013) [BDRip 1080p, Дублированный, Ukrainian, Оригинал (Английский), субтитры] " />

Аплоадер: Админ, дата: 22-11-2013, 07:11, торрент скачан: 359 раз

Понравилась раздача? Посмотрите эти:
  • Джобс: Империя соблазна / jOBS (Джошуа Майкл Штерн, драма, биография, 2013) ...
  • Одноклассники 2 / Grown Ups 2 (Деннис Дуган, Комедия, 2013) [BDRip 720p, Пр ...
  • Одноклассники 2 / Grown Ups 2 (Деннис Дуган, Комедия, 2013) [BDRip-AVC, Про ...
  • Одноклассники 2 / Grown Ups 2 (Деннис Дуган, комедия, 2013) [BD Remux 1 ...
  • Одноклассники 2 / Grown Ups 2 (Деннис Дуган, Комедия, 2013) [BDRip, Професс ...
  • Одноклассники 2 / Grown Ups 2 (Деннис Дуган, Комедия, 2013) [BDRip 720p, Пр ...
  • Погнали! / Getaway (Кортни Соломон, боевик, криминал, 2013) [BDRip 1080p, П ...
  • Смурфики 2 / The Smurfs 2 (Раджа Госнелл, мультфильм, фэнтези, комедия, сем ...
  • Византия / Byzantium (Нил Джордан, Фэнтези, триллер, драма, 2012) [BDRip 10 ...
  • Мальчишник: Часть III / The Hangover Part III (Тодд Филлипс, комедия, 2013) ...
  • Иллюзия обмана / Now You See Me [Extended Cut] (Луи Летерье, триллер, крими ...
  • Иллюзия обмана / Now You See Me [Extended Cut] (Луи Летерье, триллер, крими ...
  • Заклятие / The Conjuring (Джеймс Ван, ужасы, триллер, 2013) [BDRip 720р, Ду ...
  • Заклятие / The Conjuring (Джеймс Ван, ужасы, триллер, 2013) [BDRip 1080p, Д ...
  • Лавлэйс / Lovelace (Роб Эпштейн, Джеффри Фридман, драма, биография, 2013) [ ...
  • Перелом / Fracture (Грегори Хоблит, Триллер, драма, криминал, детектив, 200 ...
  • Ворон / The Raven (Джеймс МакТиг, Триллер, детектив, 2012) [BDRip 1080p, Ду ...
  • Даю год / I Give It a Year (Дэн Мазер, мелодрама, комедия, 2012) [BDRip-AVC ...
  • Толстяк на ринге / Here Comes the Boom (Фрэнк Корачи, Боевик, комедия, 2012 ...
  • Суррогат / The Sessions (Бен Луин, Драма, 2012) [BDRip-AVC, Профессиональны ...
  • Одноклассники / Grown Ups (Дэннис Дуган / Dennis Dugan, комедия, 2010) [BDR ...
  • Заражение / Contagion (Стивен Содерберг, Фантастика, 2011) [BDRip 1080p, Пр ...
  • Лето. Одноклассники. Любовь / LOL (Лиза Азуэлос, Драма, мелодрама, комедия, ...
  • Секретная служба Санта-Клауса / Arthur Christmas (Сара Смит, Бэрри Кук, Мул ...
  • Невероятный Халк / The Incredible Hulk (Луи Летерье, фантастика, боевик, тр ...
  • Информация
    Посетители, находящиеся в группе Гости, не могут оставлять комментарии к данной публикации.