вход на сайт

Имя пользователя :
Пароль :

Восстановление пароля Регистрация
Сезон убийц / Killing Season (Марк Стивен Джонсон, триллер, драма, боевик, 2013) [BDRip 720p, Профессиональный (многоголосный, закадровый), Оригинал (Английский), субтитры]
Рейтинг:
(голосов: 1)



[img]{THEME}/images/logopost.png[/img]




Сезон убийц / Killing Season
«Честный поединок один на один»

Год выпуска: 2013
Страна: США, Бельгия
Производство: Millennium Films
Жанр: триллер, драма, боевик

Режиссёр: Марк Стивен Джонсон
В ролях: Джон Траволта, Роберт Де Ниро, Майло Вентимилья, Элизабет Олин, Калин Сарменов, Стефан Штерев, Диана Любенова

Перевод: Профессиональный (многоголосный, закадровый (Лицензия)), Оригинал (Английский)
Субтитры: Русские, Английские

Описание: История о ветеранах войны в Боснии — американце и сербе, которые, спустя много лет после событий в Европе, устраивают свою личную Третью мировую войну, пытаясь свести счеты.




Дата премьеры (Мир): 29 июня 2013
Дата премьеры (РФ): 5 декабря 2013, «Top Film Distribution»

Качество: BDRip 720p
Продолжительность: 01:32:24

Формат: MKV
Видео кодек: AVC
Аудио кодек: AC3
Cвойства видео: 1280x720 (16:9) at 23.976 fps, AVC at 5998 kbps avg, 0.271 bit/pixel
Свойства аудио RU: 48 kHz, AC3 Dolby Digital, 6 (L C R, Side: L R, LFE) ch, 448 Кбит/с
Свойства аудио EN: 48 kHz, AC3 Dolby Digital, 6 (L C R, Side: L R, LFE) ch, 448 Кбит/с
MediaInfo ▼General
Unique ID : 239071296440613656550966964885004195302 (0xB3DB74F528F944EF8FFB1EB5F0CB95E6)
Complete name : H:Killing.Season.2013.BD.720.Hot-Film.mkv
Format : Matroska
Format version : Version 2
File size : 4.37 GiB
Duration : 1h 30mn
Overall bit rate : 6 896 Kbps
Encoded date : UTC 2014-01-20 15:49:28
Writing application : mkvmerge v5.8.0 (No Sleep / Pillow) built on Sep 2 2012 15:37:04
Writing library : libebml v1.2.3 + libmatroska v1.3.0

Video
ID : 1
Format : AVC
Format/Info : Advanced Video Codec
Format profile : [email protected]
Format settings, CABAC : Yes
Format settings, ReFrames : 9 frames
Codec ID : V_MPEG4/ISO/AVC
Duration : 1h 30mn
Bit rate : 5 998 Kbps
Width : 1 280 pixels
Height : 720 pixels
Display aspect ratio : 16:9
Frame rate mode : Constant
Frame rate : 23.976 fps
Color space : YUV
Chroma subsampling : 4:2:0
Bit depth : 8 bits
Scan type : Progressive
Bits/(Pixel*Frame) : 0.271
Stream size : 3.72 GiB (85%)
Writing library : x264 core 138 r2358 9e941d1
Encoding settings : cabac=1 / ref=9 / deblock=1:-3:-3 / analyse=0x3:0x113 / me=umh / subme=11 / psy=1 / psy_rd=1.00:0.10 / mixed_ref=1 / me_range=32 / chroma_me=1 / trellis=2 / 8x8dct=1 / cqm=0 / deadzone=21,11 / fast_pskip=0 / chroma_qp_offset=-3 / threads=2 / lookahead_threads=1 / sliced_threads=0 / nr=0 / decimate=0 / interlaced=0 / bluray_compat=0 / constrained_intra=0 / bframes=8 / b_pyramid=2 / b_adapt=2 / b_bias=0 / direct=3 / weightb=1 / open_gop=0 / weightp=2 / keyint=240 / keyint_min=23 / scenecut=40 / intra_refresh=0 / rc_lookahead=40 / rc=2pass / mbtree=0 / bitrate=5998 / ratetol=1.0 / qcomp=0.60 / qpmin=0 / qpmax=69 / qpstep=4 / cplxblur=20.0 / qblur=0.5 / vbv_maxrate=50000 / vbv_bufsize=62500 / nal_hrd=none / ip_ratio=1.40 / pb_ratio=1.30 / aq=1:1.00
Language : English
Default : Yes
Forced : No

Audio #1
ID : 2
Format : AC-3
Format/Info : Audio Coding 3
Mode extension : CM (complete main)
Format settings, Endianness : Big
Codec ID : A_AC3
Duration : 1h 30mn
Bit rate mode : Constant
Bit rate : 448 Kbps
Channel(s) : 6 channels
Channel positions : Front: L C R, Side: L R, LFE
Sampling rate : 48.0 KHz
Bit depth : 16 bits
Compression mode : Lossy
Stream size : 291 MiB (6%)
Language : Russian
Default : Yes
Forced : No

Audio #2
ID : 3
Format : AC-3
Format/Info : Audio Coding 3
Mode extension : CM (complete main)
Format settings, Endianness : Big
Codec ID : A_AC3
Duration : 1h 30mn
Bit rate mode : Constant
Bit rate : 448 Kbps
Channel(s) : 6 channels
Channel positions : Front: L C R, Side: L R, LFE
Sampling rate : 48.0 KHz
Bit depth : 16 bits
Compression mode : Lossy
Stream size : 291 MiB (6%)
Language : English
Default : No
Forced : No

Text #1
ID : 4
Format : UTF-8
Codec ID : S_TEXT/UTF8
Codec ID/Info : UTF-8 Plain Text
Language : Russian
Default : No
Forced : No

Text #2
ID : 5
Format : UTF-8
Codec ID : S_TEXT/UTF8
Cod
e7e57fb6fb93acc21866b55c997eac44f6d0123aСезон убийц / Killing Season (Марк Стивен Джонсон, триллер, драма, боевик, 2013) [BDRip 720p, Профессиональный (многоголосный, закадровый), Оригинал (Английский), субтитры] Сезон убийц / Killing Season (Марк Стивен Джонсон, триллер, драма, боевик, 2013) [BDRip 720p, Профессиональный (многоголосный, закадровый), Оригинал (Английский), субтитры] " />

Аплоадер: Админ, дата: 20-01-2014, 23:00, торрент скачан: 359 раз

Понравилась раздача? Посмотрите эти:
  • Два ствола / 2 Guns (Бальтасар Кормакур, боевик, триллер, драма, комедия, к ...
  • Сезон убийц / Killing Season (Марк Стивен Джонсон, триллер, драма, боевик, ...
  • Сезон убийц / Killing Season (Марк Стивен Джонсон, триллер, драма, боевик, ...
  • Сезон убийц / Killing Season (Марк Стивен Джонсон, триллер, драма, боевик, ...
  • Сезон убийц / Killing Season (Марк Стивен Джонсон, триллер, драма, боевик, ...
  • Сезон убийц / Killing Season (Марк Стивен Джонсон, триллер, драма, боевик, ...
  • Погнали! / Getaway (Кортни Соломон, боевик, криминал, 2013) [BDRip 720p, Пр ...
  • Пастырь / Priest (Скотт Чарльз Стюарт, ужасы, фантастика, боевик, триллер, ...
  • Посылка / The Package (Джесси Джонсон, боевик, 2013) [BDRip 720p, Профессио ...
  • Хроника / Chronicle (Джошуа Транк, фантастика, боевик, триллер, драма, 2012 ...
  • [EN] Сезон убийц / Killing Season (Марк Стивен Джонсон, боевик, триллер, 20 ...
  • Гость / The Caller (Мэттью Паркхилл, триллер, детектив, 2011) [BDRip 720p, ...
  • Цель Номер Один / Zero Dark Thirty (Кэтрин Бигелоу, Триллер, драма, история ...
  • Суррогат / The Sessions (Бен Луин, драма, 2012) [BDRip 720p, Профессиональн ...
  • Черный дрозд / Deadfall (Штефан Руцовицки, Триллер, драма, криминал, 2012) ...
  • Убить по расписанию / Ticking Clock (Эрни Барбараш, фантастика, боевик, три ...
  • Похищенная / A Lonely Place to Die (Джулиан Джилби, триллер, криминал, прик ...
  • Семь футов / Seven Below (Кевин Каррауэй, Ужасы, триллер, 2012) [BDRip 720p ...
  • Супер Майк / Magic Mike (Стивен Содерберг, Драма, комедия, 2012) [BDRip 720 ...
  • Патруль / End of Watch (Дэвид Эйр, Триллер, драма, криминал, 2012) [BDRip 7 ...
  • Информация
    Посетители, находящиеся в группе Гости, не могут оставлять комментарии к данной публикации.