вход на сайт

Имя пользователя :
Пароль :

Восстановление пароля Регистрация
Ронал-варвар / Ronal Barbaren (Крестен Вестбьерг Андерсен, Торбьорн Кристофферсен, Филип Эйнштейн Липски, мультфильм, фэнтези, приключения, 2011) [BDRemux, Дубляж + Оригинал + Субтитры (Danish, Norwegian)]
Рейтинг:
(голосов: 1)



[img]{THEME}/images/logopost.png[/img]



Ронал-варвар / Ronal Barbaren
«Неэпическая сила!»

Год выпуска: 2011
Страна: Дания
Производство: Nordisk Film A/S,Einstein Film,Nordisk Film- & TV-Fond
Жанр: мультфильм, фэнтези, приключения

Режиссёр: Крестен Вестбьерг Андерсен, Торбьорн Кристофферсен, Филип Эйнштейн Липски
В ролях: Андерс Юль, Хади Ка-Куш, Лерке Винтер Андерсен, Брайан Лукке, Ларс Миккельсен, Питер Од, Ларс Бом, Оле Теструп, Пребен Кристенсен, Оле Эрнст

Перевод: Дублированный + Оригинал (Danish)
Субтитры: Danish, Norwegian [полные, PGS]

Описание: Ронал - самый нетипичный варвар на Земле. Его не интересуют ни битвы, ни завоевания, ни пиры. Больше всего на свете ему хочется, чтобы все просто оставили его в покое. Но судьба распоряжается иначе. Однажды злобный принц Вольказар, вождь враждебного племени, захватывает всех варваров в плен, чтобы принести их в жертву древним богам и обрести власть над миром. На свободе остается лишь Ронал. И теперь ему вместе с безалаберным бардом Алибером, мускулистой девой-воительницей Зандрой и эльфом-метросексуалом Эльриком предстоит пройти множество испытаний, чтобы освободить свой народ, обрести веру в себя и... найти любовь.Дата премьеры (мир): 29 сентября 2011
Дата премьеры (РФ): 1 декабря 2011, «Вольга»
Качество: BDRemux
Продолжительность: 01:29:18

Релиз от:

Формат: MKV
Видео кодек: x264
Аудио кодек: DTS, DTS-HD
Видео: 1 920x1 080 (16:9), 23.976 fps, ~17.4 Mbps avg, 0.351 bit/pixel
Аудио1: Rus | 48 kHz, 6 channels (Front: L C R, Side: L R, LFE), 754.00 kbps avg
Аудио2: Danish | 48 kHz, 6 channels (Front: L C R, Side: L R, LFE), 1 510.00 kbps avg
MediaInfo ▼TextVideo
ID : 4113 (0x1011)
Menu ID : 1 (0x1)
Format : AVC
Format/Info : Advanced Video Codec
Format profile : [email protected]
Format settings, CABAC : Yes
Format settings, ReFrames : 3 frames
Format settings, GOP : M=3, N=12
Codec ID : 27
Duration : 1h 29mn
Bit rate mode : Variable
Bit rate : 17.4 Mbps
Maximum bit rate : 35.0 Mbps
Width : 1 920 pixels
Height : 1 080 pixels
Display aspect ratio : 16:9
Frame rate : 23.976 fps
Standard : NTSC
Color space : YUV
Chroma subsampling : 4:2:0
Bit depth : 8 bits
Scan type : Progressive
Bits/(Pixel*Frame) : 0.351
Stream size : 10.9 GiB (81%)
Color primaries : BT.709-5, BT.1361, IEC 61966-2-4, SMPTE RP177
Transfer characteristics : BT.709-5, BT.1361
Matrix coefficients : BT.709-5, BT.1361, IEC 61966-2-4 709, SMPTE RP177

Audio #1
ID : 4352 (0x1100)
Menu ID : 1 (0x1)
Format : DTS
Format/Info : Digital Theater Systems
Codec ID : 130
Duration : 1h 29mn
Bit rate mode : Constant
Bit rate : 754 Kbps
Channel(s) : 6 channels
Channel positions : Front: L C R, Side: L R, LFE
Sampling rate : 48.0 KHz
Bit depth : 24 bits
Compression mode : Lossy
Stream size : 482 MiB (4%)
Language : Russian

Audio #2
ID : 4353 (0x1101)
Menu ID : 1 (0x1)
Format : DTS
Format/Info : Digital Theater Systems
Format profile : MA / Core
Muxing mode : Stream extension
Codec ID : 134
Duration : 1h 29mn
Bit rate mode : Variable
Bit rate : 2 491 Kbps / 1 510 Kbps
Channel(s) : 6 channels
Channel positions : Front: L C R, Side: L R, LFE
Sampling rate : 48.0 KHz
Bit depth : 24 bits
Compression mode : Lossless / Lossy
Language : Danish

Text #1
ID : 4608 (0x1200)
Menu ID : 1 (0x1)
Format : PGS
Codec ID : 144
Delay relative to video : 13s 138ms
Language : Danish

Text #2
ID : 4609 (0x1201)
Menu ID : 1 (0x1)
Format : PGS
Codec ID : 144
Delay relative to video : 13s 138ms
Language : Norwegian





93a3c2e475513c41a2fccd70e609fa5fd69071a8Ронал-варвар / Ronal Barbaren (Крестен Вестбьерг Андерсен, Торбьорн Кристофферсен, Филип Эйнштейн Липски, мультфильм, фэнтези, приключения, 2011) [BDRemux, Дубляж + Оригинал + Субтитры (Danish, Norwegian)] Ронал-варвар / Ronal Barbaren (Крестен Вестбьерг Андерсен, Торбьорн Кристофферсен, Филип Эйнштейн Липски, мультфильм, фэнтези, приключения, 2011) [BDRemux, Дубляж + Оригинал + Субтитры (Danish, Norwegian)] " />

Аплоадер: Админ, дата: 12-02-2012, 12:21, торрент скачан: 359 раз

Понравилась раздача? Посмотрите эти:
  • Kara / Speed Up [2012, K-Pop, J-Pop, Dance, BDRemux]
  • Нубы / Noobz (Блейк Фриман, Комедия, 2012) [BDRemux 1080p, Профессиональный ...
  • Самый страшный фильм 3D / Dead Before Dawn 3D (Эйприл Маллен, Ужасы, комеди ...
  • [3D] Ронал-варвар / Ronal Barbaren (Крестен Вестбьерг Андерсен/ мультфильм, ...
  • Ронал-варвар / Ronal Barbaren (Крестен Вестбьерг Андерсен, Торбьорн Кристоф ...
  • Ронал-Варвар / Ronal the Barbarian (Крестен Вестбьерг Андерсен, Мультфильм, ...
  • Ронал-варвар / Ronal barbaren (Крестен Вестбьерг Андерсен, мультфильм, фэнт ...
  • Ронал-варвар / Ronal barbaren (Крестен Вестбьерг Андерсен, мультфильм, фэнт ...
  • Ронал-варвар / Ronal barbaren (Крестен Вестбьерг Андерсен, мультфильм, фэнт ...
  • Ронал-варвар / Ronal barbaren (Крестен Вестбьерг Андерсен, мультфильм, фэнт ...
  • [3D] Другой мир: Пробуждение / Underworld: Awakening (Манс Марлинд , Ужасы ...
  • Старая добрая оргия / A Good Old Fashioned Orgy (Алекс Грегори, комедия, 20 ...
  • Иван Царевич и Серый Волк (Владимир Торопчин, мультфильм, семейный, 2011) [ ...
  • Пол: Секретный материальчик / Расширенная версия / Paul (Грег Моттола, фант ...
  • Рапунцель: Счастлива навсегда / Tangled Ever After ( Нэйтан Грено, Байрон Х ...
  • Призрак в школе / Haunted High (Джеффри Скотт Ландо, ужасы, фантастика, 201 ...
  • Чемпионат Испании 2011-12 / 35-й тур / Барселона - Реал / Футбол HD [Футбол ...
  • Голос // Выпуск 13 / Суперфинал (ТВ-шоу, 29.12.2012) [HDTV |1080i|, Не треб ...
  • Ронал-варвар / Ronal barbaren (Крестен Вестбьерг Андерсен, мультфильм, фэнт ...
  • Телескоп Хаббл / IMAX - Hubble (Тони Майерс, документальный, 2010) [BDRemux ...
  • [3D] Ронал-варвар / Ronal Barbaren (Крестен Вестбьерг Андерсен, Торбьорн Кр ...
  • Ронал-варвар / Ronal barbaren (Крестен Вестбьерг Андерсен, мультфильм, фэнт ...
  • [3D] Забери мою душу 3D / My Soul to Take 3D(Уэс Крэйвен,ужасы, триллер, де ...
  • Ронал-варвар / Ronal barbaren (Крестен Вестбьерг Андерсен, мультфильм, фэнт ...
  • Ронал-варвар / Ronal barbaren (Крестен Вестбьерг Андерсен, мультфильм, фэнт ...
  • Информация
    Посетители, находящиеся в группе Гости, не могут оставлять комментарии к данной публикации.