вход на сайт

Имя пользователя :
Пароль :

Восстановление пароля Регистрация
Аноним / Anonymous (Роланд Эммерих / Roland Emmerich, триллер, драма, 2011) [BDRip 1080p, Профессиональный (полное дублирование)]
Рейтинг:
(голосов: 1)



[img]{THEME}/images/logopost.png[/img]



Аноним / Anonymous
«Что скрывает имя Шекспир?»

Год выпуска: 2011
Страна: Германия Великобритания
Производство: Centropolis Entertainment, Columbia Pictures, elativity Media, Studio Babelsberg Motion Pictures GmbH
Жанр: триллер, драма

Режиссёр: Роланд Эммерих / Roland Emmerich
В ролях: Рис Иванс, Ванесса Редгрейв, Себастьян Фернандес-Арместо, Рейф Сполл, Дэвид Тьюлис, Эдвард Хогг, Ксавьер Сэмюэл, Сэм Рейд, Джейми Кэмпбелл Бауэр, Джоэли Ричардсон...

Перевод: Профессиональный (полное дублирование)
Субтитры: Отсутствуют

Описание: Фильм даст совершенно неожиданный ответ на извечный вопрос: а кем же «был или не был» Шекспир, и кто на самом деле скрывается за этим всемирно известным именем великого человека?Дата премьеры (мир): 11 сентября 2011
Дата премьеры (РФ): 17 ноября 2011, «WDSSPR»
Качество: BDRip 1080p
Продолжительность: 02:10:05

Формат: MKV
Видео кодек: x264
Аудио кодек: DTS
Видео: 1920x816 (2.35:1), 23.976 fps, x264~8.74 Mb/s avg, 0.233 bit/pixel
Аудио: 48 kHz, 6 channels (Front: L C R, Side: L R, LFE), 1510.00 kbps avg

MediaInfo ▼TextVideo
ID : 1
Format : AVC
Format/Info : Advanced Video Codec
Format profile : [email protected]
Format settings, CABAC : Yes
Format settings, ReFrames : 4 frames
Codec ID : V_MPEG4/ISO/AVC
Duration : 2h 10mn
Bit rate : 8 761 Kbps
Width : 1 920 pixels
Height : 816 pixels
Display aspect ratio : 2.35:1
Frame rate : 23.976 fps
Standard : PAL
Color space : YUV
Chroma subsampling : 4:2:0
Bit depth : 8 bits
Scan type : Progressive
Bits/(Pixel*Frame) : 0.233
Stream size : 7.96 GiB (84%)
Language : German
Default : Yes
Forced : No
Color primaries : BT.709-5, BT.1361, IEC 61966-2-4, SMPTE RP177
Transfer characteristics : BT.709-5, BT.1361
Matrix coefficients : BT.709-5, BT.1361, IEC 61966-2-4 709, SMPTE RP177
Audio
ID : 2
Format : DTS
Format/Info : Digital Theater Systems
Codec ID : A_DTS
Duration : 2h 10mn
Bit rate mode : Constant
Bit rate : 1 510 Kbps
Channel(s) : 6 channels
Channel positions : Front: L C R, Side: L R, LFE
Sampling rate : 48.0 KHz
Bit depth : 24 bits
Compression mode : Lossy
Stream size : 1.37 GiB (14%)
Language : Russian
Default : No
Forced : No





dca510ce6bc9d65bd34d3ea77b751bacb9d121d1Аноним / Anonymous (Роланд Эммерих / Roland Emmerich, триллер, драма, 2011) [BDRip 1080p, Профессиональный (полное дублирование)] Аноним / Anonymous (Роланд Эммерих / Roland Emmerich, триллер, драма, 2011) [BDRip 1080p, Профессиональный (полное дублирование)] " />

Аплоадер: Админ, дата: 9-01-2012, 17:41, торрент скачан: 359 раз

Понравилась раздача? Посмотрите эти:
  • Аноним / Anonymous (Роланд Эммерих, триллер, драма, 2011) [BDRip-AVC, Профе ...
  • Аноним / Anonymous (Роланд Эммерих, Триллер, 2011) [BDRip - AVC, Дубляж]
  • Аноним / Anonymous (Роланд Эммерих, Триллер, 2011) [BDRip - AVC, Дубляж + У ...
  • Аноним / Anonymous (Роланд Эммерих , триллер, драма, 2011) [HDRip-AVC, Проф ...
  • Аноним / Anonymous (Роланд Эммерих, триллер, драма, 2011) [BDRip-AVC, Профе ...
  • Послезавтра / The Day After Tomorrow (Роланд Эммерих / Roland Emmerich ,фан ...
  • Патриот / The Patriot (Роланд Эммерих, боевик, драма, военный, 2000) [BDRip ...
  • Годзилла / Godzilla (Роланд Эммерих, ужасы, фантастика, боевик, триллер, 19 ...
  • Аноним / Anonymous (Роланд Эммерих, триллер, драма, 2011) [BDRip 720p, Проф ...
  • Аноним / Anonymous (Роланд Эммерих / Roland Emmerich, триллер, драма, 2011) ...
  • Послезавтра / The Day After Tomorrow (Роланд Эммерих / Roland Emmerich ,фан ...
  • Послезавтра / The Day After Tomorrow (Роланд Эммерих / Roland Emmerich ,фан ...
  • День независимости / Independence Day (Роланд Эммерих / Roland Emmerich, Фа ...
  • Аноним / Anonymous (Роланд Эммерих , триллер, драма, 2011) [DVD 9, Професси ...
  • Аноним / Anonymous (Роланд Эммерих, триллер, драма, 2011 г) [320x240] [DVDR ...
  • Аноним / Anonymous (Роланд Эммерих, триллер, драма, 2011) [HDRip, Профессио ...
  • Послезавтра / The Day After Tomorrow (Роланд Эммерих / Roland Emmerich, фан ...
  • Аноним / Anonymous (Роланд Эммерих , триллер, драма, 2011) [HDRip, Професси ...
  • Аноним / Anonymous (Роланд Эммерих , триллер, драма, 2011) [BDRip, Професси ...
  • Аноним / Anonymous (Роланд Эммерих, триллер, драма, 2011) [HDRip, Профессио ...
  • Информация
    Посетители, находящиеся в группе Гости, не могут оставлять комментарии к данной публикации.