вход на сайт

Имя пользователя :
Пароль :

Восстановление пароля Регистрация
Выкрутасы (Леван Габриадзе, мелодрама, комедия, спорт, 2011) [ВDRip 720p, Не требуется]
Рейтинг:
(голосов: 1)



[img]{THEME}/images/logopost.png[/img]



Выкрутасы
«Почему у этих М всё всегда через Ж?»

Год выпуска: 2011
Страна: Россия
Производство: Базелевс Продакшн
Жанр: мелодрама, комедия, семейный, спорт

Режиссёр: Леван Габриадзе
В ролях: Константин Хабенский, Милла Йовович, Иван Ургант, Сергей Гармаш, Владимир Меньшов, Ольга Тумайкина, Галина Логинова, Сергей Селин, Сергей Шеховцов, Александр Кержаков

Перевод: Не требуется
Субтитры: Отсутствуют

Описание: Слава Колотилов, простой школьный учитель из сонного приморского городка с н*censored*альным названием «Пальчики», приехал покорять Москву с рукописью романа в руках, а покорил… красавицу Надю. Уже близится свадьба, ресторан заказан и гости приглашены, но цепкие Пальчики не дают Славе вырваться к суженой, подстраивая череду «непреодолимых обстоятельств». Вот и приходится Славе выкручиваться, рассказывая Наде по телефону небылицы о страшных происшествиях и катастрофах. А в далёкой Москве в это время Надя отбивает атаки своего бывшего ухажера Дани, готового пойти на любые выкрутасы, лишь бы вернуть себе невесту…Дата премьеры (мир): 17 февраля 2011
Дата премьеры (РФ): 17 февраля 2011, «WDSSPR»
Качество: BDRip 720p
Продолжительность: 01:40:48

Формат: MKV
Видео кодек: AVC
Аудио кодек: DTS
Видео: 1280x544 (2.35:1), 23.976 fps, AVC ~6 250 kbps avg, 0.374 bit/pixel
Аудио: 48 kHz, DTS, 6 ch, ~1510.00 kbps avg

Mediainfo ▼General
Unique ID : 225848884560041428270952012334549971766 (0xA9E8E9B846691A568B56B4D6A69C3336)
Complete name : E:Vykrutasy.2011.BDRip.720p.mkv
Format : Matroska
File size : 5.46 GiB
Duration : 1h 40mn
Overall bit rate : 7 758 Kbps
Movie name : Выкрутасы
Encoded date : UTC 2012-02-19 19:07:30
Writing application : mkvmerge v5.1.0 (And so it goes) built on Nov 28 2011 23:58:28
Writing library : libebml v1.2.3 + libmatroska v1.3.0
Video
ID : 1
Format : AVC
Format/Info : Advanced Video Codec
Format profile : [email protected]
Format settings, CABAC : Yes
Format settings, ReFrames : 12 frames
Codec ID : V_MPEG4/ISO/AVC
Duration : 1h 40mn
Bit rate : 6 250 Kbps
Width : 1 280 pixels
Height : 544 pixels
Display aspect ratio : 2.35:1
Frame rate : 23.976 fps
Color space : YUV
Chroma subsampling : 4:2:0
Bit depth : 8 bits
Scan type : Progressive
Bits/(Pixel*Frame) : 0.374
Stream size : 4.29 GiB (79%)
Title : Выкрутасы
Writing library : x264 core 120 r2164 da19765
Encoding settings : cabac=1 / ref=12 / deblock=1:-3:-3 / analyse=0x3:0x113 / me=umh / subme=11 / psy=1 / psy_rd=1.00:0.00 / mixed_ref=1 / me_range=48 / chroma_me=1 / trellis=2 / 8x8dct=1 / cqm=0 / deadzone=21,11 / fast_pskip=0 / chroma_qp_offset=-2 / threads=12 / sliced_threads=0 / nr=0 / decimate=1 / interlaced=0 / bluray_compat=0 / constrained_intra=0 / bframes=9 / b_pyramid=2 / b_adapt=2 / b_bias=0 / direct=3 / weightb=1 / open_gop=0 / weightp=2 / keyint=240 / keyint_min=23 / scenecut=40 / intra_refresh=0 / rc_lookahead=40 / rc=2pass / mbtree=1 / bitrate=6250 / ratetol=1.0 / qcomp=0.60 / qpmin=0 / qpmax=69 / qpstep=4 / cplxblur=20.0 / qblur=0.5 / ip_ratio=1.40 / aq=1:1.00
Language : Russian
Audio
ID : 2
Format : DTS
Format/Info : Digital Theater Systems
Codec ID : A_DTS
Duration : 1h 40mn
Bit rate mode : Constant
Bit rate : 1 510 Kbps
Channel(s) : 6 channels
Channel positions : Front: L C R, Side: L R, LFE
Sampling rate : 48.0 KHz
Bit depth : 16 bits
Compression mode : Lossy
Stream size : 1.06 GiB (19%)
Title : DTS
Language : Russian
Menu
00:00:00.000 : ru:Chapter 01
00:04:45.201 : ru:Chapter 02
00:10:52.401 : ru:Chapter 03
00:15:59.041 : ru:Chapter 04
00:21:45.012 : ru:Chapter 05
00:26:23.415 : ru:Chapter 06
00:33:21.416 : ru:Chapter 07
00:38:31.976 : ru:Chapter 08
00:46:34.917 : ru:Chapter 09
00:51:43.600 : ru:Chapter 10
00:58:07.150 : ru:Chapter 11
01:02:06.597 : ru:Chapter 12
01:09:24.994 : ru:Chapter 13
01:15:02.873 : ru:Chapter 14
01:20:04.841 : ru:Chapter 15
01:25:19.697 : ru:Chapter 16
01:29:35.453 : ru:Chapter 17
01:34:11.771 : ru
9d2fd2422a9be9ed0d66f74646b880cb1c9c46cdВыкрутасы (Леван Габриадзе, мелодрама, комедия, спорт, 2011) [ВDRip 720p, Не требуется] Выкрутасы (Леван Габриадзе, мелодрама, комедия, спорт, 2011) [ВDRip 720p, Не требуется] " />

Аплоадер: Админ, дата: 27-05-2012, 02:34, торрент скачан: 359 раз

Понравилась раздача? Посмотрите эти:
  • Даю год / I Give It a Year (Дэн Мазер, Мелодрама, Комедия, 2013) [BDRip-AVC ...
  • О чём молчат девушки (Карен Оганесян, Комедия, 2013) [BDRip-AVC, Не требует ...
  • Выкрутасы (Леван Габриадзе, Мелодрама, 2011) [BDRip - AVC, Оригинал]
  • Выкрутасы (Леван Габриадзе, Мелодрама, 2011) [HDRip - AVC, Оригинал] by Tor ...
  • Выкрутасы (Леван Габриадзе, мелодрама, комедия, семейный, спорт, 2011) [HDR ...
  • Терминал / The Terminal (Стивен Спилберг, комедия, мелодрама, драма, 2004) ...
  • Жизнь прекрасна / La Vita è bella (Роберто Бениньи, Драма, мелодрама, комед ...
  • Мальчишник в Новом Орлеане / Mardi Gras: Spring Break (Фил Дорнфелд, Комеди ...
  • [3D] Шаг вперед 3D / Step Up 3D (Джон М. Чу, мелодрама, драма, музыка, 2010 ...
  • Секс по дружбе / Friends with Benefits (Уилл Глак, драма, мелодрама, комеди ...
  • Золушка (Надежда Кошеверова, Михаил Шапиро, мюзикл, фэнтези, мелодрама, 194 ...
  • Бриллиантовая рука (Леонид Гайдай, комедия, криминал, приключения, 1968) [B ...
  • Выкрутасы (Леван Габриадзе, мелодрама, комедия, спорт, 2011) [ВDRip1080, Ор ...
  • Смешарики. Начало (Денис Чернов, Мелодрама, 2011) [BDRip 1080p, Не требуетс ...
  • Схватка / The Grey (Джо Карнахан, Боевик, 2012) [BDRip 720p, Профессиональн ...
  • Запрещенная реальность (Константин Максимов, фантастика, боевик, 2009) [BDR ...
  • Ю-571 / U-571 (Джонатан Мостоу, Боевик, 2000) [BDRip - AVC, Дубляж + Субтит ...
  • Выкрутасы (Леван Габриадзе / мелодрама, комедия, спорт / 2011) [320x240] [D ...
  • Выкрутасы (Леван Габриадзе, мелодрама, комедия, спорт, 2011) [DVD 9, оригин ...
  • Выкрутасы (Леван Габриадзе / мелодрама, комедия, спорт / 2011) [320x240] [D ...
  • Выкрутасы (Леван Габриадзе, мелодрама, комедия, 2011) [BDRip, Оригинал] от ...
  • Выкрутасы (Леван Габриадзе, мелодрама, комедия, семейный, спорт, 2011) [BDR ...
  • Выкрутасы (Леван Габриадзе, мелодрама, комедия, 2011) [DVDRip, Оригинал]
  • Выкрутасы (Леван Габриадзе, Мелодрама, 2011) [HDRip, Оригинал] by Torrent C ...
  • Собачье сердце (Владимир Бортко, фантастика, драма, комедия, 1988) [BDRip 1 ...
  • Информация
    Посетители, находящиеся в группе Гости, не могут оставлять комментарии к данной публикации.