вход на сайт

Имя пользователя :
Пароль :

Восстановление пароля Регистрация
Непобедимый (Олег Погодин, боевик, 2009) [BDRip 1080p, Не требуется]
Рейтинг:
(голосов: 1)



[img]{THEME}/images/logopost.png[/img]



Непобедимый

Cлоган: «Здесь каждый ведет свою игру - он просто делает свою работу.»

Год выпуска: 2009
Страна:Россия
Выпущено:Park Cinema Production
Жанр: боевик

Режиссёр: Олег Погодин
В главных ролях: Владимир Епифанцев, Юрий Соломин, Гарри Борд, Вольфганг Раач, Кит Мале, Владимир Турчинский, Сергей Астахов, Владимир Стеклов, Джон-Себастьен Коут, Ольга Фадеева

Перевод: не требуется
Субтитры: Отсутствуют

О фильме: Егор Кремнёв — специальный агент российской разведки. В последнее время его преследуют неудачи: провал боевой операции в Колумбии, где Кремнёв руководил группой захвата, унёс жизни всех его товарищей. Кремнёва обвиняют в этой трагедии. Его лишают командирских полномочий. Теперь он — рядовой агент наблюдения.

Но похоже на этом его беды не закончились. Во время последнего задания, которое обещало быть простым и безопасным, колумбийская трагедия повторилась — погибли все соратники Кремнёва. А человек, которого должны были захватить, оказался секретарём беглого олигарха Соркина — Михаилом Шерингом, давно находившимся в розыске. У Шеринга, по слухам, есть секретные бумаги, за которыми охотится не только российская разведка, но и могущественный преступный синдикат Запада. Теперь Кремнёву предстоит сложная задача — доставить Шеринга на родину.

Чтобы реабилитроваться за прошлые провалы и вернуть себе доброе имя, Кремнёв намерен осуществить доставку Шеринга в одиночку, не прибегая к помощи коллег-разведчиков. Тем более что вокруг — сплошные предательства, заговоры, засады и ловушки. Но самая главная ловушка Кремнёва это объект доставки — Шеринг. От влияния своего попутчика Кремневу так просто не избавиться. Это смертельно опасное путешествие изменит обоих: и побеждённого Шеринга, и непобедимого Кремнёва.



IMDB: рейтинг 6.2/10 (441 votes)
КиноПоиск: рейтинг 6.5/10 (2 602 голосов)

MediaInfo ▼Text
General
Complete name : Man.of.East.2008.1080p.BluRay.dts.x264-CHD.mkv
Format : Matroska
File size : 8.88 GiB
Duration : 1h 46mn
Overall bit rate : 11.9 Mbps
Encoded date : UTC 2010-06-17 07:38:31
Writing application : mkvmerge v4.0.0 (The Stars were mine) сборка от Jun 6 2010 16:18:42
Writing library : libebml v1.0.0 + libmatroska v1.0.0

Video
ID : 1
Format : AVC
Format/Info : Advanced Video Codec
Format profile : [email protected]
Format settings, CABAC : Yes
Format settings, ReFrames : 4 frames
Muxing mode : Container [email protected]
Codec ID : V_MPEG4/ISO/AVC
Duration : 1h 46mn
Bit rate : 10.4 Mbps
Width : 1 920 pixels
Height : 826 pixels
Display aspect ratio : 2.35:1
Frame rate : 23.976 fps
Color space : YUV
Chroma subsampling : 4:2:0
Bit depth : 8 bits
Scan type : Progressive
Bits/(Pixel*Frame) : 0.274
Stream size : 7.58 GiB (85%)
Title : Man.of.East.2008.1080p.BluRay.dts.x264-CHD
Writing library : x264 core 88 r1471 1144615
Encoding settings : cabac=1 / ref=4 / deblock=1:-3:-3 / analyse=0x3:0x113 / me=umh / subme=10 / psy=1 / psy_rd=1.00:0.10 / mixed_ref=1 / me_range=32 / chroma_me=1 / trellis=2 / 8x8dct=1 / cqm=2 / deadzone=21,11 / fast_pskip=0 / chroma_qp_offset=-2 / threads=6 / sliced_threads=0 / nr=0 / decimate=1 / mbaff=0 / constrained_intra=0 / bframes=3 / b_pyramid=2 / b_adapt=2 / b_bias=0 / direct=3 / wpredb=1 / wpredp=2 / keyint=250 / keyint_min=25 / scenecut=40 / intra_refresh=0 / rc_lookahead=60 / rc=2pass / mbtree=1 / bitrate=10400 / ratetol=2.0 / qcomp=0.70 / qpmin=10 / qpmax=51 / qpstep=4 / cplxblur=20.0 / qblur=0.5 / vbv_maxrate=50000 / vbv_bufsize=50000 / ip_ratio=1.40 / aq=1:1.00
Language : Russian

Audio
ID : 2
Format : DTS
Format/Info : Digital Theater Systems
Codec ID : A_DTS
Duration : 1h 46mn
Bit rate mode : Constant
Bit rate : 1 510 Kbps
Channel(s) : 6 channels
Channel positions : Front: L C R, Side: L R, LFE
Sampling rate : 48.0 KHz
Bit depth : 24 bits
Stream size : 1.12 GiB (13%)
Title : dts 6ch 1509 kbps
Language : Russian


Качество: BDRip 1080p
Продолжительность: 01:
cabd0f160bd5bfcd94c2ee48f7ebabbaef633cf7Непобедимый (Олег Погодин, боевик, 2009) [BDRip 1080p, Не требуется] Непобедимый (Олег Погодин, боевик, 2009) [BDRip 1080p, Не требуется] " />

Аплоадер: Админ, дата: 4-04-2012, 06:26, торрент скачан: 359 раз

Понравилась раздача? Посмотрите эти:
  • Brit Smith feat. Will.i.am / Provocative (Explicit) [2013, Hip-Hop, HDRip]
  • Непобедимый / Man of East (Олег Погодин, Боевик, 2008) [HDRip-AVC, Оригинал ...
  • Запрещенная реальность (Константин Максимов, фантастика, боевик, 2009) [BDR ...
  • Непобедимый (Олег Погодин, Боевик, 2008) [BDRip-AVC, Не требуется + Sub]
  • [3D] Panasonic Demo Disc 3D 2010-2011 [BDrip-AVC 1080p-720p][Оригинал][Anam ...
  • Аватар / Avatar (Джеймс Кэмерон / James Cameron, Фантастика, боевик, трилле ...
  • Мальчики-налётчики / Takers (Джон Льюсенхоп, боевик, криминал, 2010) [BDRip ...
  • Восстание планеты обезьян / Rise of the Planet of the Apes (Руперт Уайатт, ...
  • Двойник дьявола / The Devils Double (Ли Тамахори, драма, биография, 2011) [ ...
  • Профессионал / Killer Elite (Гэри МакКендри, Боевик, Триллер, Криминал, 201 ...
  • Леон: Профессионал (Режиссерская версия) / Leon (Люк Бессон, боевик, 1994) ...
  • Агент Джонни Инглиш: Перезагрузка / Johnny English Reborn (Оливер Паркер, ...
  • Смешарики. Начало (Денис Чернов, Мелодрама, 2011) [BDRip 1080p, Не требуетс ...
  • Бабло (Константин Буслов, комедия, криминал, 2011) [BDRip 1080p, не требует ...
  • Запрещенная реальность (Константин Максимов, фантастика, боевик, 2009) [BDR ...
  • Офицеры (Владимир Роговой, драма, мелодрама, 1971) [BDRip 1080p, (Цветная в ...
  • Морской бой / Battleship (Питер Берг, Фантастика, боевик, триллер, приключе ...
  • 1812: Уланская баллада (Олег Фесенко, Приключения, 2012) [BDRip 720p, Не тр ...
  • Mylene Farmer / Du Temps [2011, Pop, HDTVRip]
  • Mylene Farmer / Bleu Noir [2011, Pop, HDTVRip]
  • Непобедимый (Олег Погодин. боевик, 2008г) [DVDRip]
  • Непобедимый // Эпизоды с 1 по 4 (из 4) (Олег Погодин, боевик, 2009) [TVRip, ...
  • Непобедимый (Олег Погодин, боевик, приключение, 2008) [DVDRip, Оригинал]
  • Непобедимый // Эпизоды с 1 по 4 (из 4) (Олег Погодин, боевик, 2008) [DVDRip ...
  • Непобедимый (Олег Погодин, боевик, 2009) [BDRip, Не требуется]
  • Информация
    Посетители, находящиеся в группе Гости, не могут оставлять комментарии к данной публикации.