вход на сайт

Имя пользователя :
Пароль :

Восстановление пароля Регистрация
О чём говорят мужчины (Дмитрий Дьяченко, комедия, 2010) [BDRemux 1080p, не требуется]
Рейтинг:
(голосов: 1)



[img]{THEME}/images/logopost.png[/img]



О чём говорят мужчины

Год выпуска: 2010
Страна: Россия
Производство: Кинокомпания «Квадрат», Стрела
Жанр: комедия
Режиссёр: Дмитрий Дьяченко
В ролях: Леонид Барац, Ростислав Хаит, Александр Демидов, Камиль Ларин, Нонна Гришаева, Нина Русланова, Сергей Никоненко, Федор Добронравов, Анна Касаткина-Барац, Жанна Фриске
Перевод: не требуется
Субтитры: отсутствуют
Описание:
О чем говорят мужчины? Конечно, о женщинах. Нет, еще о работе, о деньгах, о машинах, о футболе,… но в основном, все-таки, о женщинах. А уж если у них впереди два дня, которые они, вырвавшись из офисов и семей, уехав от всех забот и обязательств, проведут в дороге — два дня, насыщенные событиями и приключениями — то можете быть уверены, что за это время они успеют обсудить немало тем…
И еще. Из этих разговоров — это мы точно знаем — многие женщины узнают о себе очень много нового…
IMDB: 7.60 (1 384)
КиноПоиск: 7.841 (57 054)
Качество: BDRemux 1080p
Продолжительность: 01:36:32
Формат: MKV
Видео кодек: AVC
Аудио кодек: AC3, DTS-HD MA
Формат видео: 1920x1080p, (16:9), 24.000 fps, 24.6 Мбит/сек (30.0 Мбит/сек), 0.494 bit/pixel
Формат аудио:
Русский DTS-HD MA 5.1 (48 kHz / 2125 kbps / 16-bit)
Русский Dolby Digital 5.1 (448 kbps)

MediaInfo ▼
Text
F:O.chem.govoryat.muzchiny.2010.H264.AC3.DTS.Blu-ray.1080p.mkv
General
Unique ID : 177665701011331046035660743281937583447 (0x85A92B5B9FD7E214BF380DF9E6098D57)
Complete name : F:O.chem.govoryat.muzchiny.2010.H264.AC3.DTS.Blu-ray.1080p.mkv
Format : Matroska
File size : 18.3 GiB
Duration : 1h 36mn
Overall bit rate : 27.1 Mbps
Encoded date : UTC 2012-01-02 09:55:21
Writing application : mkvmerge v4.0.0 (The Stars were mine) сборка от Jun 6 2010 16:18:42
Writing library : libebml v1.0.0 + libmatroska v1.0.0
Video #1
ID : 1
Format : AVC
Format/Info : Advanced Video Codec
Format profile : [email protected]
Format settings, CABAC : Yes
Format settings, ReFrames : 4 frames
Codec ID : V_MPEG4/ISO/AVC
Duration : 1h 36mn
Bit rate mode : Variable
Bit rate : 24.6 Mbps
Maximum bit rate : 30.0 Mbps
Width : 1 920 pixels
Height : 1 080 pixels
Display aspect ratio : 16:9
Frame rate : 24.000 fps
Standard : NTSC
Color space : YUV
Chroma subsampling : 4:2:0
Bit depth : 8 bits
Scan type : Progressive
Bits/(Pixel*Frame) : 0.494
Stream size : 16.6 GiB (91%)
Color primaries : BT.709-5, BT.1361, IEC 61966-2-4, SMPTE RP177
Transfer characteristics : BT.709-5, BT.1361
Matrix coefficients : BT.709-5, BT.1361, IEC 61966-2-4 709, SMPTE RP177
Audio #2
ID : 2
Format : DTS
Format/Info : Digital Theater Systems
Format profile : MA / Core
Codec ID : A_DTS
Duration : 1h 36mn
Bit rate mode : Variable
Bit rate : 1 576 Kbps / 1 510 Kbps
Channel(s) : 6 channels
Channel positions : Front: L C R, Side: L R, LFE
Sampling rate : 48.0 KHz
Bit depth : 16 bits
Compression mode : Lossless / Lossy
Audio #3
ID : 3
Format : AC-3
Format/Info : Audio Coding 3
Mode extension : CM (complete main)
Codec ID : A_AC3
Duration : 1h 36mn
Bit rate mode : Constant
Bit rate : 448 Kbps
Channel(s) : 6 channels
Channel positions : Front: L C R, Side: L R, LFE
Sampling rate : 48.0 KHz
Bit depth : 16 bits
Compression mode : Lossy
Stream size : 309 MiB (2%)
Pаздача группы:
Наши раздачи//Набор участников//Стол заказов


b8214a553c8971785e32244c2ed1acd34571a9c3О чём говорят мужчины (Дмитрий Дьяченко, комедия, 2010) [BDRemux 1080p, не требуется] О чём говорят мужчины (Дмитрий Дьяченко, комедия, 2010) [BDRemux 1080p, не требуется] " />

Аплоадер: Админ, дата: 24-01-2012, 01:26, торрент скачан: 359 раз

Понравилась раздача? Посмотрите эти:
  • Kara / Speed Up [2012, K-Pop, J-Pop, Dance, BDRemux]
  • Нубы / Noobz (Блейк Фриман, Комедия, 2012) [BDRemux 1080p, Профессиональный ...
  • Самый страшный фильм 3D / Dead Before Dawn 3D (Эйприл Маллен, Ужасы, комеди ...
  • О чём говорят мужчины (Дмитрий Дьяченко, комедия, 2010) [BDRip-AVC, Не треб ...
  • О чём говорят мужчины (Дмитрий Дьяченко, комедия, 2010) [BDRip-AVC, Не треб ...
  • О чём говорят мужчины (Дмитрий Дьяченко, комедия, 2010) [BDRip-AVC, Не треб ...
  • О чём ещё говорят мужчины (Дмитрий Дьяченко, Комедия, 2011) [BDRip-AVC, Не ...
  • О чём ещё говорят мужчины (Дмитрий Дьяченко, Комедия, 2011) [BDRip-AVC, Не ...
  • Старая добрая оргия / A Good Old Fashioned Orgy (Алекс Грегори, комедия, 20 ...
  • Иван Царевич и Серый Волк (Владимир Торопчин, мультфильм, семейный, 2011) [ ...
  • Бой с тенью 3D: Последний раунд (Алексей Сидоров, боевик, драма, криминал, ...
  • Неудержимые / The Expendables (Сильвестр Сталлоне, боевик, триллер, приключ ...
  • Пол: Секретный материальчик / Расширенная версия / Paul (Грег Моттола, фант ...
  • Притворись моей женой / Just go with it (Деннис Дуган, мелодрама, комедия, ...
  • Призрак в школе / Haunted High (Джеффри Скотт Ландо, ужасы, фантастика, 201 ...
  • Голос // Выпуск 13 / Суперфинал (ТВ-шоу, 29.12.2012) [HDTV |1080i|, Не треб ...
  • О чём говорят мужчины (Дмитрий Дьяченко, комедия, 2010) [BDRip, Оригинал] b ...
  • О чём говорят мужчины (Дмитрий Дьяченко, комедия, 2010) [BDRip, оригинал]
  • О чём говорят мужчины (Дмитрий Дьяченко, Комедия, 2010 г) [DVD5, оригинал]
  • О чём ещё говорят мужчины (Дмитрий Дьяченко, комедия, 2011) [DVD9, Не требу ...
  • О чём ещё говорят мужчины (Дмитрий Дьяченко, комедия, 2011) [HDRip, Не треб ...
  • О чём ещё говорят мужчины (Дмитрий Дьяченко, комедия, 2011) [BDRip, Не треб ...
  • О чём ещё говорят мужчины (Дмитрий Дьяченко, мелодрама, комедия, 2011) [Blu ...
  • [Трейлер #1] Великий Гэтсби / The Great Gatsby (Баз Лурман, драма, мелодрам ...
  • О чём говорят мужчины (Дмитрий Дьяченко, Комедия, 2010) [BDRip, Оригинал]
  • Информация
    Посетители, находящиеся в группе Гости, не могут оставлять комментарии к данной публикации.