вход на сайт

Имя пользователя :
Пароль :

Восстановление пароля Регистрация
Букет (Андрей Канивченко, мелодрама, 2013) [HDTVRip 720p, Оригинал (русский)]
Рейтинг:
(голосов: 1)



[img]{THEME}/images/logopost.png[/img]



«Букет»

¤Информация о фильме¤
Год выпуска: 2013
Страна: Россия
Производство: Кинокомпания "Студия Паламеда"
Жанр: мелодрама

Режиссёр: Андрей Канивченко
В ролях: Ольга Котельникова, Елена Дубровская, Анатолий Котенёв, Инна Коляда, Анатолий Руденко, Денис Воронцов, Любовь Руденко

Перевод: Оригинал (русский)
Субтитры: нет

Описание
¤ ¤ ¤
- ...Каждая девушка хочет услышать предложение руки и сердца от своего любимого, но только не Таня. Ведь только что закончилась школа, зачем так рано становиться взрослыми! А вдруг за поворотом ее ждет огромное счастье? Во всяком случае, мама считает именно так. И когда на горизонте появляется перспективный жених с дипломатическим будущим, Таня делает выбор в его пользу.

Проходят восемнадцать лет Таниной жизни. Дочь Таня воспитывает одна, с работы приходится уйти, и будущее зыбко и туманно. Неизменным в ее жизни остается лишь одно: от Сергея, ее первой любви, на день рождения приходит букет ромашек. Семнадцать лет. Семнадцать букетов. Как важно знать, что кто-то в этом мире так преданно любит тебя!

Новый день рождения не приносит с собой очередного букета. И только теперь Таня понимает, как много значил для нее этот букет на день рожденья. Сможет ли Таня вернуть любовь в свою жизнь?... -
¤ ¤ ¤

---------------------------------------------

---------------------------------------------


¤Тех.Данные¤
Качество: HDTVRip 720p
Продолжительность: ~ 01:31:39 часа

Формат: Matroska-MKV-
Видео кодек: AVC [email protected]
Аудио кодек: Audio Coding 3
Видео: 1280x720 (16:9), 25.000 fps, AVC ~4100 kbps avg, 0.178 bit/pixel
Аудио: 48 kHz, AC3 Dolby Digital, 2/0 (L,R) ch, ~192 kbps

Информация MediaInfo ▼TextОбщее
Уникальный идентификатор : 251444853953692213454775893374749253102 (0xBD2A8471A631B52D80610BC90BFA1DEE)
Полное имя : E:DownloadsБукет.2013.HDTVRip 720p.mkv
Формат : Matroska
Версия формата : Version 2
Размер файла : 2,74 Гбайт
Продолжительность : 1 ч. 31 м.
Общий поток : 4286 Кбит/сек
Дата кодирования : UTC 2013-04-01 10:01:45
Программа кодирования : mkvmerge v4.9.1 (Ich will) сборка от Jul 11 2011 23:53:15
Библиотека кодирования : libebml v1.2.1 + libmatroska v1.1.1

Видео
Идентификатор : 1
Формат : AVC
Формат/Информация : Advanced Video Codec
Профиль формата : [email protected]
Параметр CABAC формата : Да
Параметр ReFrames формата : 5 кадров
Идентификатор кодека : V_MPEG4/ISO/AVC
Продолжительность : 1 ч. 31 м.
Битрейт : 4100 Кбит/сек
Ширина : 1280 пикселей
Высота : 720 пикселей
Соотношение сторон : 16:9
Частота кадров : 25,000 кадров/сек
Цветовое пространство : YUV
Субдискретизация насыщенности : 4:2:0
Битовая глубина : 8 бит
Тип развёртки : Прогрессивная
Бит/(Пиксели*Кадры) : 0.178
Размер потока : 2,57 Гбайт (94%)
Библиотека кодирования : x264 core 116 r2044 392e762
Настройки программы : cabac=1 / ref=5 / deblock=1:-1:-1 / analyse=0x3:0x113 / me=umh / subme=10 / psy=1 / psy_rd=0.00:0.10 / mixed_ref=1 / me_range=32 / chroma_me=1 / trellis=2 / 8x8dct=1 / cqm=0 / deadzone=21,11 / fast_pskip=0 / chroma_qp_offset=-1 / threads=12 / sliced_threads=0 / nr=0 / decimate=1 / interlaced=0 / bluray_compat=0 / constrained_intra=0 / bframes=5 / b_pyramid=2 / b_adapt=1 / b_bias=0 / direct=1 / weightb=1 / open_gop=0 / weightp=2 / keyint=250 / keyint_min=25 / scenecut=40 / intra_refresh=0 / rc_lookahead=40 / rc=abr / mbtree=1 / bitrate=4100 / ratetol=1.0 / qcomp=0.60 / qpmin=0 / qpmax=69 / qpstep=4 / ip_ratio=1.40 / aq=1:1.00
Default : Да
Forced : Нет

Аудио
Идентификатор : 2
Формат : AC-3
Формат/Информация : Audio Coding 3
Расширение режима : CM (complete main)
Идентификатор кодека : A_AC3
Продолжительность : 1 ч. 31 м.
Вид битрейта : Постоянный
Битрейт : 192 Кбит/сек
Каналы : 2 канала
Расположение каналов : Front: L R
Частота : 48,0 КГц
Битовая глубина : 16 бит
Метод сжатия : С потерями
Размер потока : 126 Мбайт
10da8020c51b36fcb28ad61d4230e07f9e806055Букет (Андрей Канивченко, мелодрама, 2013) [HDTVRip 720p, Оригинал (русский)] Букет (Андрей Канивченко, мелодрама, 2013) [HDTVRip 720p, Оригинал (русский)] " />

Аплоадер: Админ, дата: 6-05-2013, 18:34, торрент скачан: 359 раз

Понравилась раздача? Посмотрите эти:
  • Интерны // Эпизод 181. Новогодний выпуск (Комедия, 2013) [WEB-DL 720p, Не т ...
  • [NG] Комета века / Comet of the century (документальный, 2013) [HDTVRip-AVC ...
  • Лавлэйс / Lovelace (Роб Эпштейн, Джеффри Фридман, драма, биография, 2013) [ ...
  • Они сражались за Родину (полная версия) (Сергей Бондарчук, драма, военный, ...
  • Башня / The Tower (Чи-хун Ким, драма, 2012) [BDRip-AVC, Любительский (двухг ...
  • Больше чем мёд / More Than Honey (документальный, 2012) [BDRip 720p, Профес ...
  • Голливудский мусор / Garbage (Филипп Волкен, драма, комедия, 2013) [HDTVRip ...
  • [NG] Война львов / Lion Battle Zone (документальный, 2011) [HDTVRip-AVC, Пр ...
  • Даю год / I Give It a Year (Дэн Мазер, мелодрама, комедия, 2012) [BDRip-AVC ...
  • Дикий запад. Кино и реальность / The Wild And The West (документальный, 200 ...
  • Григорий Лепс / Самый лучший день (Live) [2013, Авторская песня, HDTVRip 72 ...
  • Букет (Андрей Канивченко, мелодрама, 2013) [HDTVRip, Не требуется]
  • Букет (Андрей Канивченко, мелодрама, 2013) [SATRip, Не требуется]
  • Букет (Андрей Канивченко, мелодрама, 2013) [HDTVRip, Не требуется]
  • Букет (Андрей Канивченко, мелодрама, 2013) [SATRip, Не требуется]
  • Чемпионат Англии 2012-2013 / 25-й тур / Обзор / Суббота / BBC Sport [2013 г ...
  • Чемпионат Англии 2012-2013 / 25-й тур / Обзор / Воскресенье / BBC Sport [20 ...
  • [NG] Гитлеровские лагеря смерти / Hitlers G.I. Death Camp (документальный, ...
  • Чемпионат Англии 2012-2013 / 19-й тур / Обзор / Среда / BBC Sport [2012 г., ...
  • Кубок Англии 2012-2013 / 3-й раунд / Обзор / Суббота / ITV 1 HD [2013 г., ф ...
  • Информация
    Посетители, находящиеся в группе Гости, не могут оставлять комментарии к данной публикации.