вход на сайт

Имя пользователя :
Пароль :

Восстановление пароля Регистрация
Офицеры (Владимир Роговой, драма, мелодрама, 1971) [BDRip 1080p, (Цветная версия), Не требуется]
Рейтинг:
(голосов: 1)



[img]{THEME}/images/logopost.png[/img]



Офицеры

Год выпуска: 1971
Страна: СССР
Производство: Студия Горького
Жанр: драма, мелодрама

Режиссёр: Владимир Роговой
В ролях: Георгий Юматов, Василий Лановой, Алина Покровская, Александр Воеводин, Наталья Рычагова, Владимир Дружников, Андрей Громов, Юрий Сорокин, Шаджан Акмухамедов, Евгений Весник.

Перевод: Не требуется
Субтитры: Нет

Описание: Судьбы двух друзей — Алексея Трофимова и Ивана Вараввы — прослеживаются на протяжении многих лет. В 20-е они вместе служили на пограничной заставе, бились с басмачами. Там они, будучи еще совсем молодыми, на всю жизнь запомнили наказ своего командира: «Есть такая профессия — родину защищать». Потом Испания, Великая Отечественная война и мирные дни. Старые друзья снова встречаются, уже став генералами.

Топ250: 86




Дата премьеры (мир): 26 июля 1971

Качество: BDRip 1080p
Продолжительность: 01:35:26

Формат: MKV
Видео кодек: H.264
Аудио кодек: DTS
Видео: 1 920 x800 (2.40:1), 24.000 fps, ~10.4 Mbps, 0.281 bit/pixel
Аудио: 48.0 KHz, 6 channels (Front: L C R, Side: L R, LFE), 1 510 kbps avg
MediaInfo ▼TextFormat : Matroska
Format version : Version 2
File size : 7.91 GiB
Duration : 1h 35mn
Overall bit rate : 11.9 Mbps
Encoded date : UTC 2011-03-28 13:23:29
Writing application : mkvmerge v4.4.0 (Die Wiederkehr) сборка от Oct 31 2010 21:52:48
Writing library : libebml v1.0.0 + libmatroska v1.0.0

Video
ID : 1
Format : AVC
Format/Info : Advanced Video Codec
Format profile : [email protected]
Format settings, CABAC : Yes
Format settings, ReFrames : 4 frames
Codec ID : V_MPEG4/ISO/AVC
Duration : 1h 35mn
Bit rate : 10.4 Mbps
Width : 1 920 pixels
Height : 800 pixels
Display aspect ratio : 2.40:1
Frame rate : 24.000 fps
Color space : YUV
Chroma subsampling : 4:2:0
Bit depth : 8 bits
Scan type : Progressive
Bits/(Pixel*Frame) : 0.281
Stream size : 6.75 GiB (85%)
Writing library : x264 core 114 r1924 08d04a4
Encoding settings : cabac=1 / ref=4 / deblock=1:-2:-2 / analyse=0x3:0x133 / me=umh / subme=10 / psy=1 / psy_rd=1.00:0.00 / mixed_ref=1 / me_range=32 / chroma_me=1 / trellis=2 / 8x8dct=1 / cqm=0 / deadzone=21,11 / fast_pskip=1 / chroma_qp_offset=-2 / threads=6 / sliced_threads=0 / nr=0 / decimate=1 / interlaced=0 / constrained_intra=0 / bframes=6 / b_pyramid=2 / b_adapt=2 / b_bias=0 / direct=3 / weightb=1 / open_gop=0 / weightp=2 / keyint=250 / keyint_min=24 / scenecut=40 / intra_refresh=0 / rc_lookahead=40 / rc=2pass / mbtree=1 / bitrate=10362 / ratetol=1.0 / qcomp=0.60 / qpmin=10 / qpmax=51 / qpstep=4 / cplxblur=20.0 / qblur=0.5 / vbv_maxrate=50000 / vbv_bufsize=50000 / nal_hrd=none / ip_ratio=1.40 / aq=1:1.00
Language : Russian
Default : Yes
Forced : Yes

Audio
ID : 2
Format : DTS
Format/Info : Digital Theater Systems
Codec ID : A_DTS
Duration : 1h 35mn
Bit rate mode : Constant
Bit rate : 1 510 Kbps
Channel(s) : 6 channels
Channel positions : Front: L C R, Side: L R, LFE
Sampling rate : 48.0 KHz
Bit depth : 24 bits
Compression mode : Lossy
Stream size : 1.01 GiB (13%)
Language : Russian
Default : Yes
Forced : Yes

Остаемся на раздаче как можно дольше. Не забываем говорить спасибо.



9fe34b58a1675bde23bbf916d8a7941ca94ee308Офицеры (Владимир Роговой, драма, мелодрама, 1971) [BDRip 1080p, (Цветная версия), Не требуется] Офицеры (Владимир Роговой, драма, мелодрама, 1971) [BDRip 1080p, (Цветная версия), Не требуется] " />

Аплоадер: Админ, дата: 17-05-2012, 20:14, торрент скачан: 359 раз

Понравилась раздача? Посмотрите эти:
  • FLO / NRG [2012, Pop, Dance, MasterRip]
  • Груз 200 (Алексей Балабанов, триллер, драма, 2007) [BDRip-AVC, Не требуется ...
  • Разговор (Сергей Комаров, Драма, 2012) [BDRip-AVC, Hе требуется]
  • Жизнь Пи / Life Of Pi (Энг Ли, Драма, приключения, 2012) [BDRip 1080p, Проф ...
  • Офицеры (Цветной) (Владимир Роговой, драма, мелодрама, 1971) [BDRip-AVC, Не ...
  • Джунгли (Александр Войтинский, Мелодрама, комедия, приключения, 2012) [BDRi ...
  • Офицеры [1971, Мелодрама, Драма, TVRip]
  • Офицеры [Цветная версия] (Владимир Роговой, Владимир Златоустовский, мелодр ...
  • [3D] Panasonic Demo Disc 3D 2010-2011 [BDrip-AVC 1080p-720p][Оригинал][Anam ...
  • Офицеры (Владимир Роговой, драма, мелодрама, 1971) [BDRip 720p, Цветная вер ...
  • Собачье сердце (Владимир Бортко, фантастика, драма, комедия, 1988) [BDRip 7 ...
  • Восстание планеты обезьян / Rise of the Planet of the Apes (Руперт Уайатт, ...
  • Леон: Профессионал (Режиссерская версия) / Leon (Люк Бессон, боевик, 1994) ...
  • Смешарики. Начало (Денис Чернов, Мелодрама, 2011) [BDRip 1080p, Не требуетс ...
  • Легенда о пианисте [Полная версия] / La Leggenda Del Pianista SullOceano [F ...
  • Хроника [Режиссёрская версия] / Chronicle [Directors cut] (Джошуа Транк, фа ...
  • Красные огни / Red Lights (Родриго Кортес, Ужасы, триллер, драма, 2012) [BD ...
  • Слова / The Words (Брайан Клагман, Ли Стернтал, Драма, мелодрама, 2012) [BD ...
  • [3D] Shakira / Waka-Waka [2010, Pop, BD3DRip]
  • Mylene Farmer / Du Temps [2011, Pop, HDTVRip]
  • Mylene Farmer / Bleu Noir [2011, Pop, HDTVRip]
  • Офицеры (Владимир Роговой, драма, мелодрама, 1971) [DVDRip, ЦВЕТНАЯ версия, ...
  • Офицеры (Владимир Роговой, Драма, мелодрама, 1971) [BDRip, Цветная версия, ...
  • Офицеры (Владимир Роговой, драма, мелодрама, 1971) [BDRip, Цветная версия, ...
  • Собачье сердце (Владимир Бортко, фантастика, драма, комедия, 1988) [BDRip 1 ...
  • Информация
    Посетители, находящиеся в группе Гости, не могут оставлять комментарии к данной публикации.