вход на сайт

Имя пользователя :
Пароль :

Восстановление пароля Регистрация
Бриллиантовая рука (Леонид Гайдай, комедия, криминал, приключения, 1968) [BDRip 720p, Не требуется]
Рейтинг:
(голосов: 1)



[img]{THEME}/images/logopost.png[/img]



Бриллиантовая рука

Год выпуска: 1968
Страна: СССР
Производство: Мосфильм
Жанр: комедия, криминал, приключения, семейный

Режиссёр: Леонид Гайдай
В ролях: Юрий Никулин, Андрей Миронов, Анатолий Папанов, Нина Гребешкова, Станислав Чекан, Владимир Гуляев, Нонна Мордюкова, Светлана Светличная, Роман Филиппов, Григорий Шпигель

Перевод: Не требуется
Субтитры: нет

Описание: Кинороман из жизни контрабандистов с прологом и эпилогом. В южном городке орудует шайка «валютчиков», возглавляемая Шефом и его помощником Графом. Скромный советский служащий и примерный семьянин Семен Семеныч Горбунков отправляется в зарубежный круиз на теплоходе, на котором также плывет Граф, который должен забрать бриллианты в одном из восточных городов и провезти их в загипсованной руке. Но в силу недоразумения вместо жулика на условленном месте падает ничего не подозревающий Семен Семенович и драгоценный гипс накладывают ему. Вот тут-то все и начинается…

IMDB: 8.10 (3 947)
КиноПоиск: 8.518 (76 126)
Top Кинопоиск 250: #23

MeDiAiNfO ▼General
Unique ID : 203696689309334287793965292153332519966 (0x993E8E2B815EE663A16A4B51CFFF541E)
Complete name : /mnt/data/torrents/inglide/Brilliantovaja.ruka.1968.720p.BluRay.2xRus.HDCLUB.mkv
Format : Matroska
Format version : Version 2
File size : 7.46 GiB
Duration : 1h 38mn
Overall bit rate : 10.9 Mbps
Movie name : Бриллиантовая рука (1968) - Release for HDCLUB
Encoded date : UTC 2011-12-25 05:09:12
Writing application : mkvmerge v5.2.0 (I cant explain) built on Dec 18 2011 18:12:03
Writing library : libebml v1.2.3 + libmatroska v1.3.0

Video
ID : 1
Format : AVC
Format/Info : Advanced Video Codec
Format profile : [email protected]
Format settings, CABAC : Yes
Format settings, ReFrames : 10 frames
Codec ID : V_MPEG4/ISO/AVC
Duration : 1h 38mn
Bit rate : 8 945 Kbps
Width : 1 280 pixels
Height : 544 pixels
Display aspect ratio : 2.35:1
Frame rate : 23.976 fps
Color space : YUV
Chroma subsampling : 4:2:0
Bit depth : 8 bits
Scan type : Progressive
Bits/(Pixel*Frame) : 0.536
Stream size : 6.14 GiB (82%)
Title : Бриллиантовая рука (1968) - Release for HDCLUB
Writing library : x264 core 120 r2120 0c7dab9
Encoding settings : cabac=1 / ref=10 / deblock=1:-3:-3 / analyse=0x3:0x133 / me=umh / subme=11 / psy=1 / psy_rd=1.00:0.00 / mixed_ref=1 / me_range=64 / chroma_me=1 / trellis=2 / 8x8dct=1 / cqm=0 / deadzone=21,11 / fast_pskip=0 / chroma_qp_offset=-2 / threads=9 / sliced_threads=0 / nr=0 / decimate=0 / interlaced=0 / bluray_compat=0 / constrained_intra=0 / bframes=6 / b_pyramid=2 / b_adapt=2 / b_bias=0 / direct=3 / weightb=1 / open_gop=0 / weightp=2 / keyint=250 / keyint_min=23 / scenecut=40 / intra_refresh=0 / rc_lookahead=40 / rc=crf / mbtree=0 / crf=16.4 / qcomp=0.60 / qpmin=0 / qpmax=69 / qpstep=4 / vbv_maxrate=50000 / vbv_bufsize=62500 / crf_max=0.0 / nal_hrd=none / ip_ratio=1.40 / pb_ratio=1.30 / aq=1:0.80
Language : Russian

Audio #1
ID : 2
Format : DTS
Format/Info : Digital Theater Systems
Codec ID : A_DTS
Duration : 1h 38mn
Bit rate mode : Constant
Bit rate : 1 510 Kbps
Channel(s) : 6 channels
Channel positions : Front: L C R, Side: L R, LFE
Sampling rate : 48.0 KHz
Bit depth : 16 bits
Compression mode : Lossy
Stream size : 1.04 GiB (14%)
Title : 48 kHz, DTS, 3/2 (L,C,R,l,r) + LFE ch, ~1536.00 kbps
Language : Russian

Audio #2
ID : 3
Format : AC-3
Format/Info : Audio Coding 3
Mode extension : CM (complete main)
Codec ID : A_AC3
Duration : 1h 38mn
Bit rate mode : Constant
Bit rate : 192 Kbps
Channel(s) : 1 channel
Channel positions : Front: C
Sampling rate : 48.0 KHz
Bit depth : 16 bits
Compression mode : Lossy
Stream size : 135 MiB (2%)
Title : 48 kHz, AC3, 1/0 (C) , ~192.00 kbps avg
Language : Russian

Menu
00:00:00.000 : en:Chapter 01
00:04:43.825 : en:Chapter 02
00:08:27.548 : en:Chapter 03
00:11:36.987 : en:Chapter 04
00:15:58.332 : en:Chapter 05
00:22:14.916 : en:Chapter 06
00:28:26.705 : en:Chapter 07
00:34:49.545 : en:Chapter 08
00:39:05.343 : en:Chapter 09
00:43
1ee406b84dbf1afe01c4c87f42f81a68cec70e86Бриллиантовая рука (Леонид Гайдай, комедия, криминал, приключения, 1968) [BDRip 720p, Не требуется] Бриллиантовая рука (Леонид Гайдай, комедия, криминал, приключения, 1968) [BDRip 720p, Не требуется] " />

Аплоадер: Админ, дата: 25-12-2011, 16:40, торрент скачан: 359 раз

Понравилась раздача? Посмотрите эти:
  • Грязь / Filth (Джон С. Бейрд, криминал, драма, комедия, 2013) [BDRip-AVC, ...
  • Даю год / I Give It a Year (Дэн Мазер, Мелодрама, Комедия, 2013) [BDRip-AVC ...
  • О чём молчат девушки (Карен Оганесян, Комедия, 2013) [BDRip-AVC, Не требует ...
  • Бриллиантовая рука (Леонид Гайдай, комедия, 1968) [BDRip-AVC,Оригинал]
  • Бриллиантовая рука (Леонид Гайдай, комедия , 1969) [BDRip-AVC, Оригинал]
  • Бриллиантовая рука (Леонид Гайдай, комедия , 1969) [BDRip-AVC, Оригинал]
  • Свидание (Юсуп Бахшиев, комедия, 2012) [BDRip-AVC, Не требуется]
  • Жизнь прекрасна / La Vita è bella (Роберто Бениньи, Драма, мелодрама, комед ...
  • Мальчишник в Новом Орлеане / Mardi Gras: Spring Break (Фил Дорнфелд, Комеди ...
  • [3D] Шаг вперед 3D / Step Up 3D (Джон М. Чу, мелодрама, драма, музыка, 2010 ...
  • Секс по дружбе / Friends with Benefits (Уилл Глак, драма, мелодрама, комеди ...
  • Золушка (Надежда Кошеверова, Михаил Шапиро, мюзикл, фэнтези, мелодрама, 194 ...
  • Бриллиантовая рука (Леонид Гайдай, комедия, криминал, приключения, семейный ...
  • Смешарики. Начало (Денис Чернов, Мелодрама, 2011) [BDRip 1080p, Не требуетс ...
  • Схватка / The Grey (Джо Карнахан, Боевик, 2012) [BDRip 720p, Профессиональн ...
  • Запрещенная реальность (Константин Максимов, фантастика, боевик, 2009) [BDR ...
  • Выкрутасы (Леван Габриадзе, мелодрама, комедия, спорт, 2011) [ВDRip 720p, Н ...
  • Ю-571 / U-571 (Джонатан Мостоу, Боевик, 2000) [BDRip - AVC, Дубляж + Субтит ...
  • [3D] Шаг вперед / Step Up (Джон М. Чу, драма, мелодрама, музыка, 2010) [B ...
  • Собачье сердце (Владимир Бортко, фантастика, драма, комедия, 1988) [BDRip 1 ...
  • Бриллиантовая рука (Леонид Гайдай, комедия, криминал, приключения, 1968) [B ...
  • Бриллиантовая рука (Леонид Гайдай, комедия, криминал, приключения, семейный ...
  • Бриллиантовая рука (Леонид Гайдай, комедия , 1969) [HDRip, Оригинал]
  • [IPod, IPhone, IPad]Бриллиантовая рука (Леонид Гайдай, комедия, криминал, п ...
  • Бриллиантовая рука (Леонид Гайдай, Комедия, 1968) [320x240] [DVDRip, Не тре ...
  • Информация
    Посетители, находящиеся в группе Гости, не могут оставлять комментарии к данной публикации.