вход на сайт

Имя пользователя :
Пароль :

Восстановление пароля Регистрация
Золушка (Надежда Кошеверова, Михаил Шапиро, мюзикл, фэнтези, мелодрама, 1947) [BDRip 720p (Цветная версия), Не требуется]
Рейтинг:
(голосов: 1)



[img]{THEME}/images/logopost.png[/img]



Золушка. Цветная версия

Год выпуска: 1947
Страна: СССР
Производство: Ленфильм
Жанр: мюзикл, фэнтези, мелодрама, комедия, семейный

Режиссёр: Надежда Кошеверова, Михаил Шапиро
В ролях: Янина Жеймо, Алексей Консовский, Эраст Гарин, Фаина Раневская, Елена Юнгер, Тамара Сезеневская, Василий Меркурьев, Александр Румнев, Варвара Мясникова, Игорь Клименков

Перевод: Не требуется
Субтитры: нет

Описание: Основа сюжета - старинный сказочный мотив о трудолюбивой Золушке, злой мачехе и ленивых сестрах. Разумеется, Шварцем переработанный и оживленный до уровня комедии, в которой есть и просто юмор, и злая сатира.

До сих пор этот нежный и добрый фильм продолжает радовать и удивлять больших и маленьких. А вы попробуйте не удивиться тому, что к вам в гости приходит волшебница со своим очаровательным пажом и мановением волшебной палочки превращает ваше рубище в бальное платье, а ваши опорки в хрустальные башмачки. Попробуйте просто и естественно усесться в золоченую тыкву, запряженную мышами, и в этой карете поехать на бал к королю. Попробуйте, наконец, танцевать со сказочным королем и влюбиться в волшебного принца.

IMDB: 7.30 (281)
КиноПоиск: 7.897 (6 347)

MeDiAiNfO ▼General
Unique ID : 179154920853192044726964432672355934179 (0x86C7FB909FF09647BA8F551A9EA65FE3)
Complete name : /mnt/data/torrents/inglide/Zolushka.1947.720p.BluRay.Rus.HDCLUB.mkv
Format : Matroska
Format version : Version 2
File size : 4.17 GiB
Duration : 1h 21mn
Overall bit rate : 7 293 Kbps
Movie name : Zolushka (1947) - Release for HDCLUB
Encoded date : UTC 2011-12-20 16:29:58
Writing application : mkvmerge v4.9.1 (Ich will) сборка от Jul 11 2011 23:53:15
Writing library : libebml v1.2.1 + libmatroska v1.1.1

Video
ID : 1
Format : AVC
Format/Info : Advanced Video Codec
Format profile : [email protected]
Format settings, CABAC : Yes
Format settings, ReFrames : 8 frames
Codec ID : V_MPEG4/ISO/AVC
Duration : 1h 21mn
Bit rate : 5 638 Kbps
Width : 988 pixels
Height : 720 pixels
Display aspect ratio : 1.372
Frame rate : 23.976 fps
Color space : YUV
Chroma subsampling : 4:2:0
Bit depth : 8 bits
Scan type : Progressive
Bits/(Pixel*Frame) : 0.331
Stream size : 3.22 GiB (77%)
Title : Release for HDCLUB
Writing library : x264 core 116 r2074 2641b9e
Encoding settings : cabac=1 / ref=8 / deblock=1:-3:-3 / analyse=0x3:0x133 / me=umh / subme=11 / psy=1 / psy_rd=1.00:0.00 / mixed_ref=1 / me_range=48 / chroma_me=1 / trellis=2 / 8x8dct=1 / cqm=0 / deadzone=21,11 / fast_pskip=1 / chroma_qp_offset=-2 / threads=3 / sliced_threads=0 / nr=0 / decimate=1 / interlaced=0 / bluray_compat=0 / constrained_intra=0 / bframes=8 / b_pyramid=2 / b_adapt=2 / b_bias=0 / direct=3 / weightb=1 / open_gop=0 / weightp=2 / keyint=250 / keyint_min=23 / scenecut=40 / intra_refresh=0 / rc_lookahead=60 / rc=crf / mbtree=1 / crf=14.0 / qcomp=0.60 / qpmin=0 / qpmax=69 / qpstep=4 / ip_ratio=1.40 / aq=1:1.00
Language : Russian
Color primaries : BT.709-5, BT.1361, IEC 61966-2-4, SMPTE RP177
Transfer characteristics : BT.709-5, BT.1361
Matrix coefficients : BT.709-5, BT.1361, IEC 61966-2-4 709, SMPTE RP177

Audio
ID : 2
Format : DTS
Format/Info : Digital Theater Systems
Codec ID : A_DTS
Duration : 1h 21mn
Bit rate mode : Constant
Bit rate : 1 510 Kbps
Channel(s) : 6 channels
Channel positions : Front: L C R, Side: L R, LFE
Sampling rate : 48.0 KHz
Bit depth : 24 bits
Compression mode : Lossy
Stream size : 884 MiB (21%)
Title : (DTS 5.1 / 48 kHz / 1510 kbps / 24-bit/Original)
Language : Russian

Menu
00:00:00.000 : :Chapter 01
00:07:04.424 : :Chapter 02
00:12:51.771 : :Chapter 03
00:21:12.854 : :Chapter 04
00:30:46.553 : :Chapter 05
00:37:25.451 : :Chapter 06
00:43:27.605 : :Chapter 07
00:47:19.837 : :Chapter 08
00:50:28.025 : :Chapter 09
01:00:26.622 : :Chapter 10
01:08:01.077 : :Chapter 11
01:13:26.402 : :Chapter 12
01:21:50.822 : :Chapter 13


РАЗДАЧА ОТ:


Качество: BDRip 720p
f216fe38ee548644b646d5c6ef6f6d36ac2e6629Золушка (Надежда Кошеверова, Михаил Шапиро, мюзикл, фэнтези, мелодрама, 1947) [BDRip 720p (Цветная версия), Не требуется] Золушка (Надежда Кошеверова, Михаил Шапиро, мюзикл, фэнтези, мелодрама, 1947) [BDRip 720p (Цветная версия), Не требуется] " />

Аплоадер: Админ, дата: 23-12-2011, 23:29, торрент скачан: 359 раз

Понравилась раздача? Посмотрите эти:
  • Грязь / Filth (Джон С. Бейрд, криминал, драма, комедия, 2013) [BDRip-AVC, ...
  • Золушка (Надежда Кошеверова, Михаил Шапиро, мюзикл, фэнтези, мелодрама, ком ...
  • Даю год / I Give It a Year (Дэн Мазер, Мелодрама, Комедия, 2013) [BDRip-AVC ...
  • О чём молчат девушки (Карен Оганесян, Комедия, 2013) [BDRip-AVC, Не требует ...
  • Золушка (Надежда Кошеверова, Михаил Шапиро; комедия, мелодрама, мюзикл; 194 ...
  • Терминал / The Terminal (Стивен Спилберг, комедия, мелодрама, драма, 2004) ...
  • Свидание (Юсуп Бахшиев, комедия, 2012) [BDRip-AVC, Не требуется]
  • Жизнь прекрасна / La Vita è bella (Роберто Бениньи, Драма, мелодрама, комед ...
  • Золушка (Надежда Кошеверова, Михаил Шапиро, мюзикл, фэнтези, мелодрама, ком ...
  • Мальчишник в Новом Орлеане / Mardi Gras: Spring Break (Фил Дорнфелд, Комеди ...
  • [3D] Шаг вперед 3D / Step Up 3D (Джон М. Чу, мелодрама, драма, музыка, 2010 ...
  • Секс по дружбе / Friends with Benefits (Уилл Глак, драма, мелодрама, комеди ...
  • Золушка (сказка, Надежда Кошеверова, Михаил Шапиро; 1947) [BDRip 1080p (цве ...
  • Бриллиантовая рука (Леонид Гайдай, комедия, криминал, приключения, 1968) [B ...
  • Иван Царевич и Серый Волк (Владимир Торопчин, мультфильм, семейный, 2011) [ ...
  • Смешарики. Начало (Денис Чернов, Мелодрама, 2011) [BDRip 1080p, Не требуетс ...
  • Схватка / The Grey (Джо Карнахан, Боевик, 2012) [BDRip 720p, Профессиональн ...
  • Запрещенная реальность (Константин Максимов, фантастика, боевик, 2009) [BDR ...
  • Выкрутасы (Леван Габриадзе, мелодрама, комедия, спорт, 2011) [ВDRip 720p, Н ...
  • Ю-571 / U-571 (Джонатан Мостоу, Боевик, 2000) [BDRip - AVC, Дубляж + Субтит ...
  • Золушка (Реставрация В ЦВЕТЕ) (Надежда Кошеверова, Михаил Шапиро, cказка, к ...
  • [3D] Шаг вперед / Step Up (Джон М. Чу, драма, мелодрама, музыка, 2010) [B ...
  • Золушка (Надежда Кошеверова, Михаил Шапиро; Сказка; 1947) [DVD9, оригинал] ...
  • Собачье сердце (Владимир Бортко, фантастика, драма, комедия, 1988) [BDRip 1 ...
  • Золушка (Надежда Кошеверова, Михаил Шапиро, cказка, комедия, мелодрама, мю ...
  • Информация
    Посетители, находящиеся в группе Гости, не могут оставлять комментарии к данной публикации.