вход на сайт

Имя пользователя :
Пароль :

Восстановление пароля Регистрация
Иван Васильевич меняет профессию (Леонид Гайдай, Фантастика, комедия, приключения, семейный, 1973) [BDRip 1080p, Оригинал]
Рейтинг:
(голосов: 1)



[img]{THEME}/images/logopost.png[/img]



Иван Васильевич меняет профессию

Год выпуска: 1973
Страна: СССР
Производство: Мосфильм
Жанр: Фантастика, комедия, приключения, семейный

Режиссёр: Леонид Гайдай
В ролях: Александр Демьяненко, Юрий Яковлев, Леонид Куравлёв, Наталья Крачковская, Савелий Крамаров, Наталья Селезнёва, Владимир Этуш, Михаил Пуговкин, Сергей Филиппов, Наталья Кустинская

Перевод: Русский (Оригинал)
субтитры: Отсутствуют

Описание: Инженер-изобретатель Тимофеев сконструировал машину времени, которая соединила его квартиру с далеким шестнадцатым веком - точнее, с палатами государя Ивана Грозного. Туда-то и попадают тезка царя пенсионер-общественник Иван Васильевич Бунша и квартирный вор Жорж Милославский.
На их место в двадцатом веке «переселяется» великий государь. Поломка машины приводит ко множеству неожиданных и забавных событий...

IMDB: 8.1 (3776)
КиноПоиск: 8.7, Top250 #10 (69201)

Качество: BDRip 1080p
Продолжительность: 01:31:38

Формат: MKV
Видео кодек: AVC
Аудио кодек: DTS
Видео: AVC, 1480х1080, 4:3, 23.976fps, 10.6 Mbps
Аудио: Русский / DTS, 6 channels, 48.0 KHz, 1510 Kbps

"MediaInfo" ▼
TextGeneral
Complete name : G:Закачка торретаIvan Vasilevich BDRip.1080p.mkv
Format : Matroska
File size : 7.92 GiB
Duration : 1h 31mn
Overall bit rate : 12.4 Mbps
Encoded date : UTC 2011-03-13 01:48:24
Writing application : mkvmerge v4.4.0 (Die Wiederkehr) сборка от Oct 31 2010 21:52:48
Writing library : libebml v1.0.0 + libmatroska v1.0.0

Video
ID : 1
Format : AVC
Format/Info : Advanced Video Codec
Format profile : [email protected]
Format settings, CABAC : Yes
Format settings, ReFrames : 4 frames
Muxing mode : Container [email protected]
Codec ID : V_MPEG4/ISO/AVC
Duration : 1h 31mn
Bit rate : 10.6 Mbps
Nominal bit rate : 10.9 Mbps
Width : 1 480 pixels
Height : 1 080 pixels
Display aspect ratio : 1.370
Frame rate : 23.976 fps
Resolution : 8 bits
Colorimetry : 4:2:0
Scan type : Progressive
Bits/(Pixel*Frame) : 0.277
Stream size : 6.79 GiB (86%)
Writing library : x264 core 114 r1913 5fd3dce
Encoding settings : cabac=1 / ref=4 / deblock=1:-2:-2 / analyse=0x3:0x133 / me=umh / subme=7 / psy=1 / psy_rd=1.00:0.00 / mixed_ref=1 / me_range=32 / chroma_me=1 / trellis=2 / 8x8dct=1 / cqm=0 / deadzone=21,11 / fast_pskip=1 / chroma_qp_offset=-2 / threads=6 / sliced_threads=0 / nr=0 / decimate=1 / interlaced=0 / constrained_intra=0 / bframes=6 / b_pyramid=0 / b_adapt=2 / b_bias=0 / direct=3 / weightb=1 / open_gop=0 / weightp=2 / keyint=250 / keyint_min=23 / scenecut=40 / intra_refresh=0 / rc_lookahead=40 / rc=2pass / mbtree=1 / bitrate=10859 / ratetol=1.0 / qcomp=0.60 / qpmin=10 / qpmax=51 / qpstep=4 / cplxblur=20.0 / qblur=0.5 / ip_ratio=1.40 / aq=1:1.00
Language : Russian

Audio
ID : 2
Format : DTS
Format/Info : Digital Theater Systems
Codec ID : A_DTS
Duration : 1h 31mn
Bit rate mode : Constant
Bit rate : 1 510 Kbps
Channel(s) : 6 channels
Channel positions : Front: L C R, Surround: L R, LFE
Sampling rate : 48.0 KHz
Resolution : 24 bits
Stream size : 990 MiB (12%)
Language : Russi



4c9a748cf96e5682c9c5e1a64d93d31dcc9c61cfИван Васильевич меняет профессию (Леонид Гайдай, Фантастика, комедия, приключения, семейный, 1973) [BDRip 1080p, Оригинал] Иван Васильевич меняет профессию (Леонид Гайдай, Фантастика, комедия, приключения, семейный, 1973) [BDRip 1080p, Оригинал] " />

Аплоадер: Админ, дата: 3-12-2011, 00:50, торрент скачан: 359 раз

Понравилась раздача? Посмотрите эти:
  • Иван Васильевич меняет профессию (Леонид Гайдай, Фантастика, комедия, прикл ...
  • Иван Васильевич меняет профессию (Леонид Гайдай, Фантастика, комедия, прикл ...
  • Иван Васильевич меняет профессию (Леонид Гайдай, Фантастика, 1973) [DVDRip ...
  • Иван Васильевич меняет профессию (Леонид Гайдай, фантастика, комедия, прикл ...
  • Иван Васильевич меняет профессию (Леонид Гайдай, фантастика, комедия, прикл ...
  • Аватар / Avatar (Джеймс Кэмерон / James Cameron, Фантастика, боевик, трилле ...
  • Дети шпионов 4D / Spy Kids: All the Time in the World in 4D (Роберт Родриге ...
  • Бриллиантовая рука (Леонид Гайдай, комедия, криминал, приключения, 1968) [B ...
  • Ну, погоди! // Сезон 1, эпизоды с 1 по 16 (из 20) (мультфильм, комедия, се ...
  • Mylene Farmer / Du Temps [2011, Pop, HDTVRip]
  • Mylene Farmer / Bleu Noir [2011, Pop, HDTVRip]
  • Иван Васильевич меняет профессию (Леонид Гайдай,Комедия, фантастика,1973) [ ...
  • Иван Васильевич меняет профессию (Леонид Гайдай,Комедия, фантастика,приключ ...
  • Иван Васильевич меняет профессию (Леонид Гайдай, фантастика, комедия, прикл ...
  • Иван Васильевич меняет профессию (Леонид Гайдай, фантастика, комедия, прикл ...
  • Иван Васильевич меняет профессию (комедия, Леонид Гайдай, 1973) [Blu-Ray Re ...
  • Тайны советского кино: Иван Васильевич меняет профессию (Документальный, 20 ...
  • Иван Васильевич меняет профессию (Леонид Гайдай, фантастика, комедия, прикл ...
  • Собачье сердце (Владимир Бортко, фантастика, драма, комедия, 1988) [BDRip 1 ...
  • Иван Васильевич меняет профессию (Леонид Гайдай, Фантастика, Комедия, Прикл ...
  • Информация
    Посетители, находящиеся в группе Гости, не могут оставлять комментарии к данной публикации.