вход на сайт

Имя пользователя :
Пароль :

Восстановление пароля Регистрация
Паспорт (Георгий Данелия, комедия, 1990) [BDRip 1080p, Оригинал (русский)]
Рейтинг:
(голосов: 1)



[img]{THEME}/images/logopost.png[/img]



«Паспорт»

¤Информация о фильме¤
Год выпуска: 1990
Страна: СССРФранцияАвстрия
Производство: Госкино, Мосфильм, Passport Production, Ритм
Жанр: комедия

Режиссёр: Георгий Данелия / Georgi Daneliya
В ролях: Жерар Дармон, Наталья Гундарева, Олег Янковский, Армен Джигарханян, Евгений Леонов, Леонид Ярмольник, Игорь Кваша, Мамука Кикалейшвили, Шэрон Брэндон, Нуца Когуашвили

Перевод: Оригинал (русский)
Субтитры: нет

Описание
¤ ¤ ¤
- ...Братья Папашвили, приехав в аэропорт, откуда один из них по соображениям жены должен улететь в Израиль, захотели выпить шампанское. Захотели, а на территории СССР его не продавали, поэтому Мераб пересёк границу по паспорту брата и купил бутылку. А обратно его не пускают. Поэтому в Израиль улетел не хормейстер детского хора Яков, а очень похожий на него брат — таксист Мераб. О его мытарствах-приключениях, выходящих за всякие пределы воображения, и рассказывает эта комедия с грустинкой. Евреи его принимают за агента КГБ, работники советского торгпредства за провокатора, а вернуться домой официально он не может... -
¤ ¤ ¤




¤Тех.Данные¤
Качество: BDRip 1080p
Продолжительность: ~ 01:41:45 часа

Формат: Matroska-MKV-
Видео кодек: AVC [email protected]
Аудио кодек: Digital Theater Systems
Видео: 1920x1080 (16:9), 23,976 fps, AVC ~9681 kbps avg, 0.195 bit/pixel
Аудио: 48 kHz, DTS, 3/2 (L,C,R,l,r) + L,F,E ch, ~1510 kbps

Информация MediaInfo ▼TextОбщее
Уникальный идентификатор : 225593625045494024972382618814712018962 (0xA9B7C0743F65CB1892F6D7D70BFA7812)
Полное имя : E:DownloadsПаспорт.1990.BDRip 1080p.mkv
Формат : Matroska
Версия формата : Version 2
Размер файла : 7,95 Гбайт
Продолжительность : 1 ч. 41 м.
Общий поток : 11,2 Мбит/сек
Название фильма : Паспорт (Rip by kaspr)
Дата кодирования : UTC 2013-04-20 09:39:18
Программа кодирования : mkvmerge v5.7.0 (The Whirlwind) built on Aug 7 2012 14:11:40
Библиотека кодирования : libebml v1.2.3 + libmatroska v1.3.0

Видео
Идентификатор : 1
Формат : AVC
Формат/Информация : Advanced Video Codec
Профиль формата : [email protected]
Параметр CABAC формата : Да
Параметр ReFrames формата : 4 кадра
Идентификатор кодека : V_MPEG4/ISO/AVC
Продолжительность : 1 ч. 41 м.
Битрейт : 9681 Кбит/сек
Ширина : 1920 пикселей
Высота : 1080 пикселей
Соотношение сторон : 16:9
Частота кадров : 23,976 кадра/сек
Цветовое пространство : YUV
Субдискретизация насыщенности : 4:2:0
Битовая глубина : 8 бит
Тип развёртки : Прогрессивная
Бит/(Пиксели*Кадры) : 0.195
Размер потока : 6,72 Гбайт (85%)
Заголовок : Паспорт (Rip by kaspr)
Библиотека кодирования : x264 core 130 r2273 b3065e6
Настройки программы : cabac=1 / ref=4 / deblock=1:-3:-3 / analyse=0x3:0x133 / me=umh / subme=11 / psy=1 / psy_rd=1.00:0.10 / mixed_ref=1 / me_range=32 / chroma_me=1 / trellis=2 / 8x8dct=1 / cqm=0 / deadzone=21,11 / fast_pskip=0 / chroma_qp_offset=-3 / threads=12 / lookahead_threads=1 / sliced_threads=0 / nr=0 / decimate=0 / interlaced=0 / bluray_compat=0 / constrained_intra=0 / bframes=6 / b_pyramid=2 / b_adapt=2 / b_bias=0 / direct=3 / weightb=1 / open_gop=0 / weightp=2 / keyint=240 / keyint_min=22 / scenecut=40 / intra_refresh=0 / rc_lookahead=40 / rc=2pass / mbtree=1 / bitrate=9681 / ratetol=1.0 / qcomp=0.60 / qpmin=0 / qpmax=69 / qpstep=4 / cplxblur=20.0 / qblur=0.5 / ip_ratio=1.40 / aq=1:1.00
Default : Да
Forced : Нет

Аудио
Идентификатор : 2
Формат : DTS
Формат/Информация : Digital Theater Systems
Идентификатор кодека : A_DTS
Продолжительность : 1 ч. 41 м.
Вид битрейта : Постоянный
Битрейт : 1510 Кбит/сек
Каналы : 6 каналов
Расположение каналов : Front: L C R, Side: L R, LFE
Частота : 48,0 КГц
Битовая глубина : 24 бит
Метод сжатия : С потерями
Размер потока : 1,07 Гбайт (13%)
Язык : Russian
Default : Да
Forced : Нет

Меню
00:00:00.000 : en:Chapter 01
00:11:59.385 : en:Chapter 02
00:22:44.279 : e
1121f45fa9f8c9921bf1cbad1943339a30bcac8fПаспорт (Георгий Данелия, комедия, 1990) [BDRip 1080p, Оригинал (русский)] Паспорт (Георгий Данелия, комедия, 1990) [BDRip 1080p, Оригинал (русский)] " />

Аплоадер: Админ, дата: 22-04-2013, 10:45, торрент скачан: 359 раз

Понравилась раздача? Посмотрите эти:
  • Джобс: Империя соблазна / jOBS (Джошуа Майкл Штерн, драма, биография, 2013) ...
  • Одноклассники 2 / Grown Ups 2 (Деннис Дуган, комедия, 2013) [BDRip 1080p, Д ...
  • Погнали! / Getaway (Кортни Соломон, боевик, криминал, 2013) [BDRip 1080p, П ...
  • Заклятие / The Conjuring (Джеймс Ван, ужасы, триллер, 2013) [BDRip 1080p, Д ...
  • Гараж (Эльдар Рязанов, драма, комедия, 1979) [DVDRip-AVC, Оригинал (русский ...
  • Рикошет / Ricochet (Ник Гомез, драма, детектив, 2011) [BDRip-AVC, Профессио ...
  • Ворон / The Raven (Джеймс МакТиг, Триллер, детектив, 2012) [BDRip 1080p, Ду ...
  • Переполох на районе / Les Kaïra (Франк Гастамбиде, комедия, 2012) [BDRip 10 ...
  • Даю год / I Give It a Year (Дэн Мазер, мелодрама, комедия, 2012) [BDRip-AVC ...
  • Возвращение героя / The Last Stand (Ким Чжи-ун, Боевик, триллер, криминал, ...
  • Пес Барбос и необычный кросс / Самогонщики / «Сто грамм» для храбрости (Лео ...
  • Думай, как мужчина / Think Like a Man (Тим Стори, Мелодрама, комедия, 2012) ...
  • Паспорт (Георгий Данелия, комедия, 1990) [DVDRip, Не требуется]
  • Заражение / Contagion (Стивен Содерберг, Фантастика, 2011) [BDRip 1080p, Пр ...
  • Переростки / The Inbetweeners (Бен Палмер / Ben Palmer, комедия, 2011) [BDR ...
  • Последняя любовь на Земле / Perfect Sense (Дэвид МакКензи, фантастика, драм ...
  • Бедная богатая девочка / Young Adult (Джейсон Райтман, драма, комедия, 2011 ...
  • Свадебный разгром / A Few Best Men (Стефан Эллиотт, Комедия, 2011) [BDRip 7 ...
  • Лето. Одноклассники. Любовь / LOL (Лиза Азуэлос, Драма, мелодрама, комедия, ...
  • Лоракс: Серенада / The Lorax: Serenade (Кайл Балда, мультфильм, комедия, му ...
  • Мстители / The Avengers (Джосс Уидон, фантастика, боевик, триллер, 2012) [B ...
  • Счастливчик / The Lucky One (Скотт Хикс, Драма, мелодрама, 2012) [BDRip 108 ...
  • Паспорт (Георгий Данелия) [1990 г., Kомедия, DVDRip]
  • Паспорт (Георгий Данелия, комедия, 1990) [DVDRip | Оригинал] by 6JIacK_w0lf ...
  • Девичник в Вегасе / Bridesmaids (Пол Фейг / Paul Feig, комедия, 2011) [BDRi ...
  • Информация
    Посетители, находящиеся в группе Гости, не могут оставлять комментарии к данной публикации.