вход на сайт

Имя пользователя :
Пароль :

Восстановление пароля Регистрация
Приключения Шерлока Холмса и доктора Ватсона: Собака Баскервилей (2 серии) (Игорь Масленников, криминал, детектив, 1981) [BDRip 720p, Не требуется]
Рейтинг:
(голосов: 1)



[img]{THEME}/images/logopost.png[/img]



« Приключения Шерлока Холмса и доктора Ватсона: Собака Баскервилей »

Информация о фильме
Год выпуска: 1981
Страна: СССР
Производство: Ленфильм
Жанр: криминал, детектив

Режиссёр: Игорь Масленников / Igor Maslennikov
В ролях: Василий Ливанов, Виталий Соломин, Рина Зеленая, Ирина Купченко, Никита Михалков, Алла Демидова, Светлана Крючкова, Александр Адабашьян, Борислав Брондуков, Евгений Стеблов

Перевод: Не требуется
Субтитры: нет

Описание
***
-...Труп Чарльза Баскервиля обнаруживают неподалеку от его родового поместья. Выражение нечеловеческого ужаса на лице покойника и следы крупной собаки поблизости заставляют вспомнить старинную легенду о проклятии, тяготеющем над родом Баскервилей. Шерлоку Холмсу предстоит докопаться до истины...-
***



Тех.Данные
Качество: BDRip 720p
Продолжительность: 2x ~ 01:16:56 - 01:15:30 часа

Формат: Matroska-MKV-
Видео кодек: AVC [email protected]
Аудио кодек: Audio Coding 3
Видео: 996x720 (1,383), 23.976 fps, AVC [email protected] ~4700 kbps avg, 0.273 bit/pixel
Аудио: 48 kHz, AC3 Dolby Digital, 3/2 (L,C,R,l,r) + LFE ch, ~448 kbps

Информация MediaInfo ▼TextОбщее
Уникальный идентификатор : 173574152791431319049199745902820552159 (0x82952A74B44CFA1B9091475F79796DDF)
Полное имя : E:DownloadsПриключения Шерлока Холмса и доктора Ватсона. Собака Баскервилей (2серии).1981.BDRip 720p1.Приключения Шерлока Холмса и доктора Ватсона. Собака Баскервилей (1 серия).1981.BDRip 720p.mkv
Формат : Matroska
Версия формата : Version 4 / Version 2
Размер файла : 2,77 Гбайт
Продолжительность : 1 ч. 16 м.
Общий поток : 5150 Кбит/сек
Название фильма : = MediaClub = rip by Painter
Дата кодирования : UTC 2013-12-11 09:57:30
Программа кодирования : mkvmerge v6.5.0 (Isnt she lovely) built on Oct 20 2013 12:50:05
Библиотека кодирования : libebml v1.3.0 + libmatroska v1.4.1

Видео
Идентификатор : 1
Формат : AVC
Формат/Информация : Advanced Video Codec
Профиль формата : [email protected]
Параметр CABAC формата : Да
Параметр ReFrames формата : 9 кадров
Идентификатор кодека : V_MPEG4/ISO/AVC
Продолжительность : 1 ч. 16 м.
Битрейт : 4700 Кбит/сек
Ширина : 996 пикселей
Высота : 720 пикселей
Соотношение сторон : 1,383
Частота кадров : 23,976 кадра/сек
Цветовое пространство : YUV
Субдискретизация насыщенности : 4:2:0
Битовая глубина : 8 бит
Тип развёртки : Прогрессивная
Бит/(Пиксели*Кадры) : 0.273
Размер потока : 2,47 Гбайт (89%)
Библиотека кодирования : x264 core 130 r2273 b3065e6
Настройки программы : cabac=1 / ref=9 / deblock=1:-3:-3 / analyse=0x3:0x133 / me=umh / subme=11 / psy=1 / psy_rd=1.00:0.20 / mixed_ref=1 / me_range=32 / chroma_me=1 / trellis=2 / 8x8dct=1 / cqm=0 / deadzone=21,11 / fast_pskip=0 / chroma_qp_offset=-3 / threads=6 / lookahead_threads=1 / sliced_threads=0 / nr=0 / decimate=0 / interlaced=0 / bluray_compat=0 / constrained_intra=0 / bframes=8 / b_pyramid=2 / b_adapt=2 / b_bias=0 / direct=3 / weightb=1 / open_gop=0 / weightp=2 / keyint=240 / keyint_min=23 / scenecut=40 / intra_refresh=0 / rc=2pass / mbtree=0 / bitrate=4700 / ratetol=1.0 / qcomp=0.60 / qpmin=0 / qpmax=69 / qpstep=4 / cplxblur=20.0 / qblur=0.5 / ip_ratio=1.40 / pb_ratio=1.30 / aq=1:1.00
Язык : Russian
Default : Да
Forced : Нет

Аудио
Идентификатор : 2
Формат : AC-3
Формат/Информация : Audio Coding 3
Расширение режима : CM (complete main)
Идентификатор кодека : A_AC3
Продолжительность : 1 ч. 16 м.
Вид битрейта : Постоянный
Битрейт : 448 Кбит/сек
Каналы : 6 каналов
Расположение каналов : Front: L C R, Side: L R, LFE
Частота : 48,0 КГц
Битовая глубина : 16 бит
Метод сжатия : С потерями
Размер потока : 247 Мбайт (9%)
Язык : Russian
Default : Да
Forced : Нет


_____________________________________________________________________________________


cfc6d49df72486feb1ca0e14455a595d0fc0ddb6Приключения Шерлока Холмса и доктора Ватсона: Собака Баскервилей (2 серии) (Игорь Масленников, криминал, детектив, 1981) [BDRip 720p, Не требуется] Приключения Шерлока Холмса и доктора Ватсона: Собака Баскервилей (2 серии) (Игорь Масленников, криминал, детектив, 1981) [BDRip 720p, Не требуется] " />

Аплоадер: Админ, дата: 12-12-2013, 12:24, торрент скачан: 359 раз

Понравилась раздача? Посмотрите эти:
  • Шерлок Холмс и доктор Ватсон: Собака Баскервилей (Игорь Масленников, кримин ...
  • Подглядывающий на кухне / Kick the Cock (Тинто Брасс, Эротика, короткометра ...
  • Интерны // Эпизод 181. Новогодний выпуск (Комедия, 2013) [WEB-DL 720p, Не т ...
  • Погнали! / Getaway (Кортни Соломон, боевик, криминал, 2013) [BDRip 1080p, П ...
  • Погнали! / Getaway (Кортни Соломон, боевик, криминал, 2013) [BDRip-AVC, Про ...
  • Шерлок Холмс и доктор Ватсон: Собака Баскервилей (Игорь Масленников, кримин ...
  • Околофутбола (Антон Борматов, драма, криминал, 2013) [BDRip 720p, Не требуе ...
  • 11.6 / 11.6 (Филипп Годо, Драма, триллер, криминал, 2013) [BDRip-AVC, Профе ...
  • Иллюзия обмана / Now You See Me [Extended Cut] (Луи Летерье, триллер, крими ...
  • Заклятие / The Conjuring (Джеймс Ван, ужасы, триллер, 2013) [BDRip 720р, Ду ...
  • Башня / The Tower (Чи-хун Ким, драма, 2012) [BDRip-AVC, Любительский (двухг ...
  • Рикошет / Ricochet (Ник Гомез, драма, детектив, 2011) [BDRip-AVC, Профессио ...
  • Перелом / Fracture (Грегори Хоблит, Триллер, драма, криминал, детектив, 200 ...
  • Ворон / The Raven (Джеймс МакТиг, Триллер, детектив, 2012) [BDRip 1080p, Ду ...
  • Королевство кривых зеркал (Александр Роу, фэнтези, семейный, 1963) [BDRip-A ...
  • Даю год / I Give It a Year (Дэн Мазер, мелодрама, комедия, 2012) [BDRip-AVC ...
  • Шерлок Холмс и доктор Ватсон: Охота на тигра / Смертельная схватка / Собака ...
  • Суррогат / The Sessions (Бен Луин, Драма, 2012) [BDRip-AVC, Профессиональны ...
  • Приключения Шерлока Холмса и доктора Ватсона/Весь сериал/DVDRip
  • Приключения Шерлока Холмса и доктора Ватсона [Издание TWISTER] (Игорь Масле ...
  • Скрат: Потерянный орех / Scrat: Gone Nutty (Карлос Салдана, короткометражка ...
  • Лоракс: Серенада / The Lorax: Serenade (Кайл Балда, мультфильм, комедия, му ...
  • [OST] Владимир Дашкевич. Приключения Шерлока Холмса и доктора Ватсона (200 ...
  • Приключения Шерлока Холмса и доктора Ватсона// № 1, эпизод 1-5 (5) (Игор ...
  • Весь Шерлок Холмс (Игорь Масленников, иронический детектив, 1979-1986) [5хD ...
  • Информация
    Посетители, находящиеся в группе Гости, не могут оставлять комментарии к данной публикации.