вход на сайт

Имя пользователя :
Пароль :

Восстановление пароля Регистрация
Собачье сердце (Владимир Бортко, фантастика, драма, комедия, 1988) [BDRip 1080p, Оригинал]
Рейтинг:
(голосов: 1)



[img]{THEME}/images/logopost.png[/img]



Собачье сердце

Год выпуска: 1988
Страна: СССР
Производство: Киностудия "Ленфильм"
Жанр: фантастика, драма, комедия

Режиссёр: Владимир Бортко
В ролях: Владимир Толоконников, Евгений Евстигнеев, Борис Плотников, Роман Карцев, Нина Русланова, Ольга Мелихова, Алексей Миронов, Анжелика Неволина, Наталья Фоменко, Иван Ганжа

Перевод: Оригинал (Русский)
Субтитры: нет

Описание: Профессор Преображенский ставит смелые опыты, пытаясь превратить собаку Шарика в равного себе во всем человека. В результате получается некто Шариков. К сожалению, опыт доказывает, что собаке лучше оставаться собакой.



Качество: BDRip 1080p
Продолжительность: 02:15:56

Формат: MKV
Видео кодек: AVC
Аудио кодек: DTS
Видео: 1424x1080, (4:3), 23.976 fps, 10.2 Mbps, 0.278 bit/pixel
Аудио: DTS, 1510 kb/s (6 ch)

"MediaInfo" ▼
TextGeneral
Unique ID : 156400240961713530850336758732859777149 (0x75A9973A96E75420D2D12BE58966207D)
Complete name : SS_HDCLUB_BDRip.1080p.DTS.RUS.[Lamazz].mkv
Format : Matroska
Format version : Version 2
File size : 11.4 GiB
Duration : 2h 15mn
Overall bit rate : 12.0 Mbps
Writing application : HandBrake 0.9.5
Writing library : libmkv 0.6.4.1

Video
ID : 1
Format : AVC
Format/Info : Advanced Video Codec
Format profile : [email protected]
Format settings, CABAC : Yes
Format settings, ReFrames : 5 frames
Codec ID : V_MPEG4/ISO/AVC
Duration : 2h 15mn
Bit rate : 10.2 Mbps
Width : 1 424 pixels
Height : 1 080 pixels
Display aspect ratio : 4:3
Frame rate mode : Variable
Frame rate : 23.976 fps
Color space : YUV
Chroma subsampling : 4:2:0
Bit depth : 8 bits
Scan type : Progressive
Bits/(Pixel*Frame) : 0.278
Stream size : 9.73 GiB (85%)
Writing library : x264 core 112
Encoding settings : cabac=1 / ref=6 / deblock=1:-1:-1 / analyse=0x3:0x113 / me=umh / subme=10 / psy=1 / psy_rd=1.00:0.00 / mixed_ref=1 / me_range=32 / chroma_me=1 / trellis=2 / 8x8dct=1 / cqm=0 / deadzone=21,11 / fast_pskip=1 / chroma_qp_offset=-2 / threads=6 / sliced_threads=0 / nr=0 / decimate=1 / interlaced=0 / constrained_intra=0 / bframes=6 / b_pyramid=1 / b_adapt=2 / b_bias=0 / direct=1 / weightb=1 / open_gop=0 / weightp=2 / keyint=240 / keyint_min=23 / scenecut=40 / intra_refresh=0 / rc_lookahead=40 / rc=crf / mbtree=1 / crf=18.0 / qcomp=0.60 / qpmin=3 / qpmax=51 / qpstep=4 / ip_ratio=1.40 / aq=1:1.00
Language : Russian
Color primaries : BT.709-5, BT.1361, IEC 61966-2-4, SMPTE RP177
Transfer characteristics : BT.709-5, BT.1361
Matrix coefficients : BT.709-5, BT.1361, IEC 61966-2-4 709, SMPTE RP177

Audio
ID : 2
Format : DTS
Format/Info : Digital Theater Systems
Codec ID : A_DTS
Duration : 2h 15mn
Bit rate mode : Constant
Bit rate : 1 510 Kbps
Channel(s) : 6 channels
Channel positions : Front: L C R, Side: L R, LFE
Sampling rate : 48.0 KHz
Bit depth : 24 bits
Compression mode : Lossy
Stream size : 1.43 GiB (13%)
Language : Russian

Menu
00:00:00.000 : Chapter 1
00:07:12.908 : Chapter 2
00:14:37.436 : Chapter 3
00:19:19.676 : Chapter 4
00:27:33.419 : Chapter 5
00:39:10.199 : Chapter 6
00:42:56.592 : Chapter 7
00:49:58.221 : Chapter 8
00:56:05.755 : Chapter 9
01:01:34.959 : Chapter 10
01:07:36.574 : Chapter 11
01:17:37.008 : Chapter 12
01:27:00.362 : Chapter 13
01:34:30.770 : Chapter 14
01:38:15.912 : Chapter 15
01:40:47.146 : Chapter 16
01:43:03.491 : Chapter 17
01:51:48.849 : Chapter 18
02:00:28.243 : Chapter 19
02:08:08.745 : Chapter 20
02:15:53.918 : Chapter 21




98c2e33c3b15ccf95595bf81fc877a3260c655b8Собачье сердце (Владимир Бортко, фантастика, драма, комедия, 1988) [BDRip 1080p, Оригинал] Собачье сердце (Владимир Бортко, фантастика, драма, комедия, 1988) [BDRip 1080p, Оригинал] " />

Аплоадер: Админ, дата: 5-12-2011, 22:23, торрент скачан: 359 раз

Понравилась раздача? Посмотрите эти:
  • Грязь / Filth (Джон С. Бейрд, криминал, драма, комедия, 2013) [BDRip-AVC, ...
  • [Видеоуроки] [BlenderCookie] Blender: Vehicle Modeling Training Series [201 ...
  • (2013) Benga / Chapter II (Dubstep, Bass) [mp3, 320/CBR]
  • Даю год / I Give It a Year (Дэн Мазер, Мелодрама, Комедия, 2013) [BDRip-AVC ...
  • О чём молчат девушки (Карен Оганесян, Комедия, 2013) [BDRip-AVC, Не требует ...
  • Пирамида сынов Солнца / Die Pyramide des Sonnengottes (Роберт Сьодмак, Прик ...
  • Терминал / The Terminal (Стивен Спилберг, комедия, мелодрама, драма, 2004) ...
  • Жизнь прекрасна / La Vita è bella (Роберто Бениньи, Драма, мелодрама, комед ...
  • Собачье сердце (Владимир Бортко, фантастика, драма, комедия, 1988) [BDRip-A ...
  • Мальчишник в Новом Орлеане / Mardi Gras: Spring Break (Фил Дорнфелд, Комеди ...
  • [3D] Шаг вперед 3D / Step Up 3D (Джон М. Чу, мелодрама, драма, музыка, 2010 ...
  • Собачье сердце (Владимир Бортко, фантастика, драма, комедия, 1988) [BDRip 7 ...
  • Секс по дружбе / Friends with Benefits (Уилл Глак, драма, мелодрама, комеди ...
  • Золушка (Надежда Кошеверова, Михаил Шапиро, мюзикл, фэнтези, мелодрама, 194 ...
  • Бриллиантовая рука (Леонид Гайдай, комедия, криминал, приключения, 1968) [B ...
  • Старая добрая оргия / A Good Old Fashioned Orgy (Алекс Грегори, комедия, 20 ...
  • Иван Царевич и Серый Волк (Владимир Торопчин, мультфильм, семейный, 2011) [ ...
  • Смешарики. Начало (Денис Чернов, Мелодрама, 2011) [BDRip 1080p, Не требуетс ...
  • Схватка / The Grey (Джо Карнахан, Боевик, 2012) [BDRip 720p, Профессиональн ...
  • Запрещенная реальность (Константин Максимов, фантастика, боевик, 2009) [BDR ...
  • Выкрутасы (Леван Габриадзе, мелодрама, комедия, спорт, 2011) [ВDRip 720p, Н ...
  • Ю-571 / U-571 (Джонатан Мостоу, Боевик, 2000) [BDRip - AVC, Дубляж + Субтит ...
  • [3D] Шаг вперед / Step Up (Джон М. Чу, драма, мелодрама, музыка, 2010) [B ...
  • Собачье сердце (Владимир Бортко, фантастика, драма, комедия, 1988) [BDRip, ...
  • Собачье сердце (Владимир Бортко, фантастика, драма, комедия, 1988) [HDRip, ...
  • Информация
    Посетители, находящиеся в группе Гости, не могут оставлять комментарии к данной публикации.