вход на сайт

Имя пользователя :
Пароль :

Восстановление пароля Регистрация
Ворон / The Crow (Алекс Пройас, фэнтези, боевик, триллер, 1994) [BDRip 720p, полное дублирование + многоголосый, закадровый + одноголосый, закадровый 4шт. + Украинский + Оригинал + субтитры]
Рейтинг:
(голосов: 1)



[img]{THEME}/images/logopost.png[/img]




Ворон / The Crow



Год выпуска: 1994
Страна: США
Производство: Miramax Films, Jeff Most Productions, Entertainment Media Investment Corporation, Edward R. Pressman Film Corporation, Crowvision Inc.
Жанр: фэнтези, боевик, триллер



Режиссёр: Алекс Пройас
В ролях: Брэндон Ли, Эрни Хадсон, Майкл Уинкотт, Дэвид Пэтрик Келли, Эйнджел Дэвид, Рошелль Дэвис, Джон Полито, Бай Лин, Лоуренс Мэйсон



Перевод: Профессиональный (полное дублирование) + Профессиональный (многоголосый, закадровый) |НТВ| + Авторский (одноголосый, закадровый) 4шт. + Дубляж (Хлопушка) + Украинский (многоголосый, закадровый) |Новый канал| + Оригинал
Субтитры: русские (Bedazzle, Goblin), украинские (Voron16), английские, UTF-8



Описание: Это была мрачная и страшная ночь. Ночь жуткого праздника Хэллоуин. Банда насильников и убийц, ворвавшись в дом молодой пары, жестоко расправилась с рок-музыкантом Эриком и его невестой Шелли. Спустя год Эрик Дрэйвен выбирается из могилы и отправляется на поиски убийц. Человек ли он? Или Ворон, жаждущий возмездия?







Качество: BDRip 720p
Продолжительность: 01:41:39



Формат: MKV
Видео кодек: H.264
Аудио кодек: AC3
Видео: 1280x694 (16:9), 8633 Kbps, 23.976 fps, 0.405 bit/pixel
Аудио #1: AC3, 448 Кбит/сек, 6 каналов, 48.0 КГц - русский |лицензия|
Аудио #2: AC3, 192 Кбит/сек, 2 канала, 48.0 КГц - русский |НТВ|
Аудио #3: AC3, 640 Кбит/сек, 6 каналов, 48.0 КГц - русский (Гоблин)
Аудио #4: AC3, 640 Кбит/сек, 6 каналов, 48.0 КГц - русский (Гаврилов)
Аудио #5: AC3, 640 Кбит/сек, 6 каналов, 48.0 КГц - русский (Горчаков)
Аудио #6: AC3, 192 Кбит/сек, 2 канала, 48.0 КГц - русский (Живов)
Аудио #7: AC3, 192 Кбит/сек, 2 канала, 48.0 КГц - русский |Хлопушка|
Аудио #8: AC3, 192 Кбит/сек, 2 канала, 48.0 КГц - украинский |Новый канал|
Аудио #9: AC3, 640 Кбит/сек, 6 каналов, 48.0 КГц - оригинал (английский)
Аудио #10: AC3, 192 Кбит/сек, 2 канала, 48.0 КГц - комментарии (английский)



MediaInfo ▼
Видео
Идентификатор : 1
Формат : AVC
Формат/Информация : Advanced Video Codec
Профиль формата : [email protected]
Параметр CABAC формата : Да
Параметр ReFrames формата : 9 кадров
Идентификатор кодека : V_MPEG4/ISO/AVC
Продолжительность : 1 ч. 41 м.
Битрейт : 8633 Кбит/сек
Ширина : 1280 пикс.
Высота : 694 пикс.
Соотношение сторон : 16:9
Частота кадров : 23,976 кадр/сек
Цветовое пространство : YUV
Подвыборка цветности : 4:2:0
Битовая глубина : 8 бит
Тип развёртки : Прогрессивная
Бит/(Пиксели*Кадры) : 0.405
Размер потока : 5,95 Гбайт (67%)
Библиотека кодирования : x264 core 116 r2074 2641b9e
Настройки программы : cabac=1 / ref=9 / deblock=1:-3:-3 / analyse=0x3:0x113 / me=umh / subme=10 / psy=1 / psy_rd=1.30:0.00 / mixed_ref=1 / me_range=16 / chroma_me=1 / trellis=2 / 8x8dct=1 / cqm=0 / deadzone=21,11 / fast_pskip=0 / chroma_qp_offset=-2 / threads=6 / sliced_threads=0 / nr=0 / decimate=0 / interlaced=0 / bluray_compat=0 / constrained_intra=0 / bframes=7 / b_pyramid=2 / b_adapt=2 / b_bias=0 / direct=3 / weightb=1 / open_gop=0 / weightp=2 / keyint=250 / keyint_min=23 / scenecut=40 / intra_refresh=0 / rc=2pass / mbtree=0 / bitrate=8633 / ratetol=1.0 / qcomp=0.60 / qpmin=0 / qpmax=69 / qpstep=4 / cplxblur=20.0 / qblur=0.5 / ip_ratio=1.40 / pb_ratio=1.30 / aq=1:0.60
Язык : English

Аудио #1
Идентификатор : 2
Формат : AC-3
Формат/Информация : Audio Coding 3
Расширение режима : CM (complete main)
Идентификатор кодека : A_AC3
Продолжительность : 1 ч. 41 м.
Вид битрейта : Постоянный
Битрейт : 448 Кбит/сек
Каналы : 6 каналов
Расположение каналов : Front: L C R, Side: L R, LFE
Частота : 48,0 КГц
Битовая глубина : 16 бит
Метод сжатия : С потерями
Размер потока : 326 Мбайт (4%)
Заголовок : Многоголосый, R5
Язык : Russian

Аудио #2
Идентификатор : 3
Формат : AC-3
Формат/Информация : Audio Coding 3
Расширение режима : CM (complete main)
Идентификатор кодека : A_AC3
Продолжительность : 1 ч. 41 м.
Вид битр
b46840469dcaaee59f4af5d63b035dcb80e88aecВорон / The Crow (Алекс Пройас, фэнтези, боевик, триллер, 1994) [BDRip 720p, полное дублирование + многоголосый, закадровый + одноголосый, закадровый 4шт. + Украинский + Оригинал + субтитры] Ворон / The Crow (Алекс Пройас, фэнтези, боевик, триллер, 1994) [BDRip 720p, полное дублирование + многоголосый, закадровый + одноголосый, закадровый 4шт. + Украинский + Оригинал + субтитры] " />

Аплоадер: Админ, дата: 27-01-2013, 15:00, торрент скачан: 359 раз

Понравилась раздача? Посмотрите эти:
  • Ворон / The Crow (Алекс Пройас, фэнтези, боевик, 1994) [BDRip-AVC, Професси ...
  • Мальчишник: Часть III / The Hangover Part III (Тодд Филлипс, Комедия, 2013) ...
  • Мальчишник: Часть III / The Hangover Part III (Тодд Филлипс, комедия, 2013) ...
  • Мальчишник: Часть III / The Hangover Part III (Тодд Филлипс, комедия, 2013) ...
  • Мальчишник: Часть III / The Hangover Part III (Тодд Филлипс, комедия, 2013) ...
  • Ворон / The Raven (Джеймс МакТиг, Триллер, детектив, 2012) [BDRip 1080p, Ду ...
  • Ну ты и придурок! / You Stupid Man (Брайан Барнс, мелодрама, комедия, 2002) ...
  • Подземелье драконов / Dungeons & Dragons (Кортни Соломон, Фэнтези, боевик, ...
  • Суррогат / The Sessions (Бен Луин, Драма, 2012) [BDRip-AVC, Профессиональны ...
  • Спаун / Spawn (Марк А.З. Диппе, Ужасы, боевик, триллер, фэнтези, 1997) [BDR ...
  • Ошибка телохранителя / The Girl from the Naked Eye (Дэвид Рен, боевик, трил ...
  • Привидение / Призрак / Ghost (Джерри Цукер, фэнтези, триллер, драма, мелодр ...
  • Ворон / The Crow (Алекс Пройас, фэнтези, боевик, триллер, 1994) [BDRip, Про ...
  • Снайпер / Sniper (Луис Ллоса, боевик,триллер,драма, 1992) [DVDRip-AVC, Про ...
  • Жестокие игры / Cruel Intentions (Роджер Камбл, мелодрама, драма, 1999) [BD ...
  • Бессонная ночь / Nuit blanche (Фредерик Жарден, Боевик, 2011) [BDRip 720p, ...
  • Павшая империя / Hirokin (Алехо Мо-Сан, фантастика, боевик, драма, приключе ...
  • Ворон / The Crow (Алекс Пройас, боевик, триллер, фэнтези, мелодрама, кримин ...
  • Идентификация / Identity (Даг Лайман,триллер, детектив, 2003) [BDRip 720p, ...
  • Ворон / The Crow (Алекс Пройас, фэнтези, боевик, триллер, 1994) [HDRip, Про ...
  • Информация
    Посетители, находящиеся в группе Гости, не могут оставлять комментарии к данной публикации.