вход на сайт

Имя пользователя :
Пароль :

Восстановление пароля Регистрация
Петля времени / Looper (Райан Джонсон, Фантастика, боевик, триллер, криминал, 2012) [BDRip-AVC, Профессиональный (полное дублирование) + Оригинал + Субтитры]
Рейтинг:
(голосов: 1)



[img]{THEME}/images/logopost.png[/img]



Петля времени / Looper

Год выпуска: 2012
Страна: США
Производство: Endgame Entertainment
Жанр: фантастика, боевик, триллер, криминал

Режиссёр: Райан Джонсон
В ролях: Джозеф Гордон-Левитт, Брюс Уиллис, Эмили Блант, Джефф Дэниелс, Ной Сеган, Пирс Гэнон, Пол Дано, Пайпер Перабо, Квинг Ксу, Трейси Томс

Перевод: Профессиональный (полное дублирование)+ Оригинал
Субтитры: Русские forced (UTF-8), Русские (UTF-8),English (UTF-8)

Описание: В недалеком будущем, где стали возможны путешествия во времени, некая корпорация убирает нежелательных людей, отправляя их в прошлое в пластиковых пакетах. Задача принимающей стороны — убить жертву, стерев тем самым несчастного из истории. Все идет гладко до тех пор, пока главный герой не распаковывает очередной пакет, обнаруживая в нем… самого себя из будущего.



Сэмпл

Качество: BDRip-AVC
Продолжительность:01:58:53

Формат: MKV
Главы: Нет
Видео кодек : AVC
Аудио кодек: AC3
Видео: 1920x816 (16:9), 23.976 fps, ~8448 Kbps, AVC, x264, 0.135 bit/pixel
Аудио1:: AC-3, 448 kbps, 6 ch, 48,0 kHz Профессиональный (полное дублирование)
Аудио2:: AC-3, 448 kbps, 6 ch, 48,0 kHz Оригинал

MediaInfo ▼
Общее
Уникальный идентификатор : 177610202073211919300231448549572719357 (0x859E7B0C8B1A7617A7BA4D09799FB2FD)
Полное имя : Looper.2012.BDRip.1080p.Rus.Eng.mkv
Формат : Matroska
Версия формата : Version 2
Размер файла : 7,76 Гбайт
Продолжительность : 1 ч. 58 м.
Общий поток : 9342 Кбит/сек
Название фильма : Петля времени / Looper (2012)
Дата кодирования : UTC 2013-01-24 09:39:38
Программа кодирования : mkvmerge v5.8.0 (No Sleep / Pillow) built on Sep 2 2012 15:37:04
Библиотека кодирования : libebml v1.2.3 + libmatroska v1.3.0

Видео
Идентификатор : 1
Формат : AVC
Формат/Информация : Advanced Video Codec
Профиль формата : [email protected]
Параметр CABAC формата : Да
Параметр ReFrames формата : 5 кадров
Идентификатор кодека : V_MPEG4/ISO/AVC
Продолжительность : 1 ч. 58 м.
Битрейт : 8448 Кбит/сек
Ширина : 1920 пикселей
Высота : 816 пикселей
Соотношение сторон : 2,35:1
Частота кадров : 23,976 кадра/сек
Цветовое пространство : YUV
Субдискретизация насыщенности : 4:2:0
Битовая глубина : 8 бит
Тип развёртки : Прогрессивная
Бит/(Пиксели*Кадры) : 0.225
Размер потока : 6,86 Гбайт (88%)
Заголовок : Release by AlexKa
Библиотека кодирования : x264 core 129 r2245 bc13772
Настройки программы : cabac=1 / ref=5 / deblock=1:-3:-3 / analyse=0x3:0x133 / me=umh / subme=11 / psy=1 / psy_rd=1.00:0.00 / mixed_ref=1 / me_range=32 / chroma_me=1 / trellis=2 / 8x8dct=1 / cqm=0 / deadzone=21,11 / fast_pskip=0 / chroma_qp_offset=-2 / threads=12 / lookahead_threads=2 / sliced_threads=0 / nr=0 / decimate=0 / interlaced=0 / bluray_compat=0 / constrained_intra=0 / bframes=4 / b_pyramid=2 / b_adapt=2 / b_bias=0 / direct=3 / weightb=1 / open_gop=0 / weightp=2 / keyint=240 / keyint_min=23 / scenecut=40 / intra_refresh=0 / rc=2pass / mbtree=0 / bitrate=8448 / ratetol=1.0 / qcomp=0.60 / qpmin=0 / qpmax=69 / qpstep=4 / cplxblur=20.0 / qblur=0.5 / ip_ratio=1.40 / pb_ratio=1.30 / aq=1:0.80
Язык : English

Аудио #1
Идентификатор : 2
Формат : AC-3
Формат/Информация : Audio Coding 3
Расширение режима : CM (complete main)
Идентификатор кодека : A_AC3
Продолжительность : 1 ч. 58 м.
Вид битрейта : Постоянный
Битрейт : 448 Кбит/сек
Каналы : 6 каналов
Расположение каналов : Front: L C R, Side: L R, LFE
Частота : 48,0 КГц
Битовая глубина : 16 бит
Метод сжатия : С потерями
Размер потока : 381 Мбайт (5%)
Заголовок : Rus
Язык : Russian

Аудио #2
Идентификатор : 3
Формат : AC-3
Формат/Информация : Audio Coding 3
Расширение режима : CM (complete main)
Идентификатор кодека : A_AC3
Продолжительность : 1 ч. 58 м.
Вид битрейта : Постоянный
Битрейт : 448 Кбит/сек
Каналы : 6 каналов
Расположение каналов : Front: L C R, Side: L R, LFE
Частота : 48,0 КГц
Битовая глубина : 16 бит
Метод сжатия : С потерями
Размер потока : 381 Мбайт (5%)
Заголовок : Eng
Язык : English
&nbs
d66ae421ab35ad7ca7005ef7be310839f23044d4Петля времени / Looper (Райан Джонсон, Фантастика, боевик, триллер, криминал, 2012) [BDRip-AVC, Профессиональный (полное дублирование) + Оригинал + Субтитры] Петля времени / Looper (Райан Джонсон, Фантастика, боевик, триллер, криминал, 2012) [BDRip-AVC, Профессиональный (полное дублирование) + Оригинал + Субтитры] " />

Аплоадер: Админ, дата: 24-01-2013, 22:33, торрент скачан: 359 раз

Понравилась раздача? Посмотрите эти:
  • Петля времени / Looper (Райан Джонсон, фантастика, боевик, триллер, кримина ...
  • Драйв / Drive (Николас Виндинг Рёфн, боевик, триллер, драма, криминал, 2011 ...
  • Петля времени / Looper (Райан Джонсон, фантастика, боевик, триллер, 2012) [ ...
  • Петля времени / Looper (Райан Джонсон, Фантастика, боевик, триллер, 2012) [ ...
  • Петля времени / Looper (Райан Джонсон, Фантастика, боевик, триллер, 2012) [ ...
  • Петля времени / Looper (Райан Джонсон, Фантастика, боевик, триллер, 2012) [ ...
  • Петля времени / Looper (Райан Джонсон, Фантастика, боевик, триллер, 2012) [ ...
  • Петля времени / Looper (Райан Джонсон, фантастика, боевик, триллер, 2012) [ ...
  • Петля времени / Looper (Райан Джонсон, Фантастика, боевик, триллер, 2012) [ ...
  • Петля времени / Looper (Райан Джонсон, фантастика, боевик, триллер, 2012) [ ...
  • Петля времени / Looper (Райан Джонсон, Фантастика, боевик, триллер, 2012) [ ...
  • [Phone, iPod] Петля времени / Looper (Райан Джонсон, фантастика, боевик, тр ...
  • Петля времени / Looper (Райан Джонсон, Фантастика, боевик, триллер, 2012) [ ...
  • Петля времени / Looper (Райан Джонсон, Фантастика, боевик, триллер, 2012) [ ...
  • Петля времени / Looper ( Райан Джонсон фантастика, боевик, триллер, кримина ...
  • Петля времени / Looper (Райан Джонсон, фантастика, боевик, триллер, кримина ...
  • Петля времени / Looper (Райан Джонсон, фантастика, боевик, триллер, 2012) [ ...
  • Петля времени / Looper (Райан Джонсон, Фантастика, боевик, триллер, 2012) [ ...
  • Петля времени / Looper (Райан Джонсон, Фантастика, Боевик, Триллер, 2012) [ ...
  • Петля времени / Looper (Райан Джонсон, Фантастика, Боевик, Триллер, 2012) [ ...
  • [EN] Петля времени / Looper (Райан Джонсон, фантастика, боевик, триллер, 20 ...
  • Петля времени / Looper (Райан Джонсон, Фантастика, Боевик, Триллер, 2012) [ ...
  • Петля времени / Looper (Райан Джонсон, фантастика, боевик, триллер, 2012) [ ...
  • Петля времени / Looper (Райан Джонсон, фантастика, боевик, триллер, 2012) [ ...
  • Петля времени / Looper (Райан Джонсон, фантастика, боевик, триллер, 2012) [ ...
  • Информация
    Посетители, находящиеся в группе Гости, не могут оставлять комментарии к данной публикации.