вход на сайт

Имя пользователя :
Пароль :

Восстановление пароля Регистрация
Невероятный Халк / The Incredible Hulk (Луи Летерье, фантастика, боевик, триллер, 2008) [BDRip 1080p, Дублированный + Оригинал (English) Sub (русские, английские)]
Рейтинг:
(голосов: 1)



[img]{THEME}/images/logopost.png[/img]



Невероятный Халк / The Incredible Hulk

Страна: США
Год выпуска: 2008
Производство: Universal Pictures
Жанр: фантастика, триллер, драма

Режиссёр: Луи Летерье
В ролях: Эдвард Нортон, Лив Тайлер, Тим Рот, Тим Блейк Нельсон, Ти Баррелл, Уильям Херт, Кристина Сабот, Питер Менса, Лу Ферриньо, Пол Соулз

Перевод: Дублированный + Оригинал (English)
Субтитры: русские, английские

Описание:
История доктора Брюса Баннера, который ищет лекарство от своего необычного «заболевания», превращающего его во время эмоционального стресса в гигантского зеленого монстра Халка. Находясь в бегах от армии, стремящейся его захватить, Брюс почти находит лекарство, но все старания идут прахом, когда у Халка вдруг появляется новый, невероятно сильный противник. Качество: BDRip 1080p
Продолжительность: 01:52:14

Формат: MKV
Видео кодек: h264
Аудио кодек: AC-3
Видео: 1920x816 (2,35:1) , 9004 Kbps , 23.976 fps , 0.240 bit/pix
Аудио #1:Russian | 448 Кбит/сек , 6 каналов (Front: L C R, Side: L R, LFE) , 48,0 КГц , 16 бит
Аудио #2:English | 448 Кбит/сек , 6 каналов (Front: L C R, Side: L R, LFE) , 48,0 КГц , 16 бит


MediaInfo ▼
Общее
Уникальный идентификатор : 239751376145115389361821299068489063925 (0xB45E6F79D233E509BA4C3BBBCFCA5DF5)
Полное имя : Невероятный Халк.2008.BDRip.1080p.Rus.Eng.mkv
Формат : Matroska
Версия формата : Version 4 / Version 2
Размер файла : 7,75 Гбайт
Продолжительность : 1 ч. 52 м.
Общий поток : 9890 Кбит/сек
Название фильма : Невероятный Халк.2008
Дата кодирования : UTC 2010-02-22 21:41:31
Программа кодирования : mkvmerge v5.8.0 (No Sleep / Pillow) built on Sep 30 2012 10:57:14
Библиотека кодирования : libebml v1.3.0 + libmatroska v1.4.0

Видео
Идентификатор : 1
Формат : AVC
Формат/Информация : Advanced Video Codec
Профиль формата : [email protected]
Параметр CABAC формата : Да
Параметр ReFrames формата : 5 кадров
Идентификатор кодека : V_MPEG4/ISO/AVC
Продолжительность : 1 ч. 52 м.
Битрейт : 9004 Кбит/сек
Ширина : 1920 пикселей
Высота : 816 пикселей
Соотношение сторон : 2,35:1
Режим частоты кадров : Постоянный
Частота кадров : 23,976 кадра/сек
Цветовое пространство : YUV
Субдискретизация насыщенности : 4:2:0
Битовая глубина : 8 бит
Тип развёртки : Прогрессивная
Бит/(Пиксели*Кадры) : 0.240
Размер потока : 6,90 Гбайт (89%)
Заголовок : Rip by Boriy
Библиотека кодирования : x264 core 128 r2216 198a7ea
Настройки программы : cabac=1 / ref=5 / deblock=1:0:0 / analyse=0x3:0x113 / me=umh / subme=10 / psy=1 / psy_rd=1.00:0.10 / mixed_ref=1 / me_range=32 / chroma_me=1 / trellis=2 / 8x8dct=1 / cqm=0 / deadzone=21,11 / fast_pskip=0 / chroma_qp_offset=-3 / threads=12 / lookahead_threads=2 / sliced_threads=0 / nr=0 / decimate=0 / interlaced=0 / bluray_compat=0 / constrained_intra=0 / bframes=5 / b_pyramid=2 / b_adapt=2 / b_bias=0 / direct=3 / weightb=1 / open_gop=0 / weightp=2 / keyint=240 / keyint_min=23 / scenecut=40 / intra_refresh=0 / rc=2pass / mbtree=0 / bitrate=9004 / ratetol=1.0 / qcomp=0.60 / qpmin=0 / qpmax=69 / qpstep=4 / cplxblur=20.0 / qblur=0.5 / ip_ratio=1.40 / pb_ratio=1.30 / aq=1:0.80
Язык : English
Default : Да
Forced : Нет

Аудио #1
Идентификатор : 2
Формат : AC-3
Формат/Информация : Audio Coding 3
Расширение режима : CM (complete main)
Параметр Endianness формата : Big
Идентификатор кодека : A_AC3
Продолжительность : 1 ч. 52 м.
Вид битрейта : Постоянный
Битрейт : 448 Кбит/сек
Каналы : 6 каналов
Расположение каналов : Front: L C R, Side: L R, LFE
Частота : 48,0 КГц
Битовая глубина : 16 бит
Метод сжатия : С потерями
Размер потока : 360 Мбайт (5%)
Заголовок : Дубляж
Язык : Russian
Default : Да
Forced : Нет

Аудио #2
Идентификатор : 3
Формат : AC-3
Формат/Информация : Audio Coding 3
Расширение режима : CM (complete main)
Параметр Endianness формата : Big
Идентификатор кодека : A_AC3
Продолжительность : 1 ч. 52 м.
Вид битрейта : Постоянный
Битрейт : 448 Кбит/сек
К
4704b69ebcfbefb3162516d371e8c2e8590af034Невероятный Халк / The Incredible Hulk (Луи Летерье, фантастика, боевик, триллер, 2008) [BDRip 1080p, Дублированный + Оригинал (English) Sub (русские, английские)] Невероятный Халк / The Incredible Hulk (Луи Летерье, фантастика, боевик, триллер, 2008) [BDRip 1080p, Дублированный + Оригинал (English) Sub (русские, английские)] " />

Аплоадер: Админ, дата: 24-01-2013, 11:03, торрент скачан: 359 раз

Понравилась раздача? Посмотрите эти:
  • Невероятный Халк / The Incredible Hulk (Луи Летерье, Фантастика, боевик, тр ...
  • Византия / Byzantium (Нил Джордан, Фэнтези, триллер, драма, 2012) [BDRip 10 ...
  • Иллюзия обмана / Now You See Me [Extended Cut] (Луи Летерье, триллер, крими ...
  • Иллюзия обмана / Now You See Me [Extended Cut] (Луи Летерье, триллер, крими ...
  • Заклятие / The Conjuring (Джеймс Ван, ужасы, триллер, 2013) [BDRip 1080p, Д ...
  • Невероятный Халк / The Incredible Hulk (Луи Летерье, Фантастика, боевик, тр ...
  • Перелом / Fracture (Грегори Хоблит, Триллер, драма, криминал, детектив, 200 ...
  • Ворон / The Raven (Джеймс МакТиг, Триллер, детектив, 2012) [BDRip 1080p, Ду ...
  • Невероятный Халк / The Incredible Hulk (Луи Летерье,фантастика, боевик, три ...
  • Невероятный Халк / The Incredible Hulk (Луи Летерье, фантастика, боевик, тр ...
  • Невероятный Халк / The Incredible Hulk (Луи Летерье, фантастика, боевик, тр ...
  • Халк / Hulk (Энг Ли, фантастика, боевик, триллер, фэнтези, 2003) [BDRip-AVC ...
  • Невероятный Халк / The Incredible Hulk (Луи Летерье, фантастика, боевик, тр ...
  • Мстители / The Avengers (Джосс Уидон, фантастика, боевик, триллер, 2012) [B ...
  • Incredible Hulk / Невероятный Халк
  • Невероятный Халк / The Incredible Hulk (Луи Летерье, фантастика, боевик, фэ ...
  • Невероятный Халк / The Incredible Hulk (Луи Летерье, Фантастика, боевик, тр ...
  • Невероятный Халк / The Incredible Hulk (Луи Летерье, фантастика, боевик, тр ...
  • Невероятный Халк / The Incredible Hulk [Расширенная версия / Extended Cut] ...
  • Невероятный Халк / The Incredible Hulk (Луи Летерье, Фантастика, Боевик, Тр ...
  • Информация
    Посетители, находящиеся в группе Гости, не могут оставлять комментарии к данной публикации.