вход на сайт

Имя пользователя :
Пароль :

Восстановление пароля Регистрация
Особо опасны / Savages [UNRATED] (Оливер Стоун, Триллер, драма, криминал, 2012) [BDRip 720p, Дубляж, Оригинал (английский), Sub]
Рейтинг:
(голосов: 1)



[img]{THEME}/images/logopost.png[/img]



Особо опасны / Savages[UNRATED]
«Молодые, красивые, дерзкие»


Год выпуска: 2012
Страна: США
Производство: Ixtlan Corporation, Onda Entertainment, Relativity Media
Жанр: Триллер, драма, криминал

Режиссёр: Оливер Стоун
В ролях: Тейлор Китч, Блейк Лайвли, Аарон Тейлор-Джонсон, Джон Траволта, Бенисио Дель Торо, Сальма Хайек, Эмиль Хирш, Демиан Бишир, Антонио Джарамилло, Хоакин Косио

Перевод: Дубляж, Оригинал (английский)
Субтитры: Russian, English

Описание: Молодые миллионеры Бен и Чон ведут дела на побережье Калифорнии. Бен — выдающийся ботаник и талантливый бизнесмен, Чон — мастер возвращения долгов и борьбы с конкурентами. В их работе много сложных моментов, ведь они выращивают лучшую в мире траву. Особо серьезные проблемы решает знакомый агент ФБР.

Но с одной не сможет помочь даже он. Сверхприбыльным бизнесом заинтересовался мексиканский картель. Его возглавляет прекрасная Елена, и она нашла главную слабость друзей — и Бен, и Чон принадлежат одной девушке. Ради прелестной О. они готовы на все. Любовь делает нас особо опасными.




Качество: BDRip 720p | Сэмпл
Продолжительность:02:21:10 час.


Формат: MKV
Видео кодек: x264
Аудио кодек: AC3
Видео: 1280x534 (2.40:1), 23.976 fps, x264 ~9 799 kbps avg, 0.598 bit/pixel
Аудио#1: 48 kHz, AC3 Dolby Digital, 3/2 (L,C,R,l,r) + LFE ch, ~384.00 kbps avg - (Дубляж)
Аудио#2: 48 kHz, AC3 Dolby Digital, 3/2 (L,C,R,l,r) + LFE ch, ~640.00 kbps avg - (Оригинал)

Дата премьеры (мир): 25 июня 2012
Дата премьеры (РФ): 13 сентября 2012, «UPI»

MediaInfo| ▼
General
Unique ID : 208378653428603304957848958644536336223 (0x9CC444D2C23F246DB03915CC1E69DF5F)
Complete name : E:Savages.2012.D.BDRip.720p.IRONCLUB.mkv
Format : Matroska
Format version : Version 2
File size : 10.9 GiB
Duration : 2h 21mn
Overall bit rate : 11.0 Mbps
Movie name : IRONCLUB
Encoded date : UTC 2013-01-23 15:26:06
Writing application : mkvmerge v5.2.0 (I cant explain) built on Dec 18 2011 18:12:03
Writing library : libebml v1.2.3 + libmatroska v1.3.0

Video
ID : 1
Format : AVC
Format/Info : Advanced Video Codec
Format profile : [email protected]
Format settings, CABAC : Yes
Format settings, ReFrames : 12 frames
Codec ID : V_MPEG4/ISO/AVC
Duration : 2h 21mn
Bit rate : 9 799 Kbps
Width : 1 280 pixels
Height : 534 pixels
Display aspect ratio : 2.40:1
Frame rate : 23.976 fps
Color space : YUV
Chroma subsampling : 4:2:0
Bit depth : 8 bits
Scan type : Progressive
Bits/(Pixel*Frame) : 0.598
Stream size : 9.66 GiB (89%)
Title : Savages.2012.Unrated.720p.BluRay.DD5.1.x264-HiDt
Writing library : x264 core 120 r2164 da19765
Encoding settings : cabac=1 / ref=12 / deblock=1:-3:-3 / analyse=0x3:0x113 / me=tesa / subme=11 / psy=1 / psy_rd=1.00:0.00 / mixed_ref=1 / me_range=64 / chroma_me=1 / trellis=2 / 8x8dct=1 / cqm=0 / deadzone=21,11 / fast_pskip=0 / chroma_qp_offset=-2 / threads=12 / sliced_threads=0 / nr=0 / decimate=1 / interlaced=0 / bluray_compat=0 / constrained_intra=0 / bframes=6 / b_pyramid=2 / b_adapt=2 / b_bias=0 / direct=3 / weightb=1 / open_gop=0 / weightp=2 / keyint=250 / keyint_min=25 / scenecut=40 / intra_refresh=0 / rc=crf / mbtree=0 / crf=16.0 / qcomp=0.65 / qpmin=0 / qpmax=49 / qpstep=4 / ip_ratio=1.40 / pb_ratio=1.30 / aq=1:0.90
Language : English
Default : Yes
Forced : Yes

Audio #1
ID : 2
Format : AC-3
Format/Info : Audio Coding 3
Mode extension : CM (complete main)
Format settings, Endianness : Big
Codec ID : A_AC3
Duration : 2h 21mn
Bit rate mode : Constant
Bit rate : 384 Kbps
Channel(s) : 6 channels
Channel positions : Front: L C R, Side: L R, LFE
Sampling rate : 48.0 KHz
Bit depth : 16 bits
Compression mode : Lossy
Stream size : 388 MiB (3%)
Title : DD 5.1 @ 384 kbps - Dub, R5
Language : Russian
Default : Yes
Forced : Yes

Audio #2
ID : 3
Format : AC-3
Format/Info : Audio Coding 3
Mode extension : CM (complete main)
F
d6f7b3a3dfb312dac27494101267f6a889983952Особо опасны / Savages [UNRATED] (Оливер Стоун, Триллер, драма, криминал, 2012) [BDRip 720p, Дубляж, Оригинал (английский), Sub] Особо опасны / Savages [UNRATED] (Оливер Стоун, Триллер, драма, криминал, 2012) [BDRip 720p, Дубляж, Оригинал (английский), Sub] " />

Аплоадер: Админ, дата: 24-01-2013, 00:06, торрент скачан: 359 раз

Понравилась раздача? Посмотрите эти:
  • Особо опасны / Savages (Оливер Стоун, триллер, драма, криминал, 2012) [BDR ...
  • Особо опасны / Savages (Оливер Стоун, триллер, драма, криминал, 2012) [BDRi ...
  • Особо опасны / Savages (Оливер Стоун, триллер, драма, криминал, 2012) [BDRi ...
  • Весенние надежды / Hope Springs (Дэвид Фрэнкел, Драма, мелодрама, комедия, ...
  • Толстяк на ринге / Here Comes the Boom (Фрэнк Корачи, Боевик, комедия, 201 ...
  • Черный дрозд / Deadfall (Штефан Руцовицки, Триллер, драма, криминал, 2012) ...
  • Особо опасны / Savages [UNRATED] (Оливер Стоун, триллер, драма, криминал, 2 ...
  • Особо опасны / Savages [UNRATED] (Оливер Стоун, Триллер, драма, криминал, 2 ...
  • Особо опасны / Savages [UNRATED] (Оливер Стоун, триллер, драма, криминал, 2 ...
  • Особо опасны / Savages [UNRATED] (Оливер Стоун, Триллер, драма, криминал, 2 ...
  • Особо опасны / Savages [UNRATED] (Оливер Стоун, Триллер, драма, криминал, 2 ...
  • Особо опасны / Savages [UNRATED] (Оливер Стоун, Триллер, драма, криминал, 2 ...
  • Особо опасны / Savages [UNRATED] (Оливер Стоун, триллер, драма, криминал, 2 ...
  • Ворон / The Raven (Джеймс МакТиг, Триллер, детектив, 2012) [BDRip 720p, Дуб ...
  • Красные огни / Red Lights (Родриго Кортес, Ужасы, триллер, драма, 2012) [BD ...
  • На Дороге / On The Road (Уолтер Саллес, Драма, приключения, 2012) [BDRip 72 ...
  • Патруль / End of Watch (Дэвид Эйр, Триллер, драма, криминал, 2012) [BDRip 7 ...
  • Особо опасны / Savages [UNRATED] (Оливер Стоун, Триллер, драма, криминал, 2 ...
  • Особо опасны / Savages [UNRATED] (Оливер Стоун, Триллер, драма, криминал, 2 ...
  • Особо опасны / Savages [UNRATED] (Оливер Стоун, Триллер, драма, криминал, 2 ...
  • Особо опасны / Savages [UNRATED] (Оливер Стоун, триллер, драма, криминал, 2 ...
  • Особо опасны / Savages [UNRATED] (Оливер Стоун, триллер, драма, криминал, 2 ...
  • Особо опасны [Расширенная версия] / Savages [Unrated] (Оливер Стоун, Трилле ...
  • Особо опасны / Savages [UNRATED] (Оливер Стоун, триллер, драма, криминал, 2 ...
  • Особо опасны / Savages [UNRATED] (Оливер Стоун, Триллер, драма, криминал, 2 ...
  • Информация
    Посетители, находящиеся в группе Гости, не могут оставлять комментарии к данной публикации.