вход на сайт

Имя пользователя :
Пароль :

Восстановление пароля Регистрация
Шкатулка проклятия / The Possession (Уле Борнедаль, ужасы, триллер, 2012) [BDRemux 1080p, Дублированный + Оригинал + Комментарии + SUB]
Рейтинг:
(голосов: 1)



[img]{THEME}/images/logopost.png[/img]



Шкатулка проклятия / The Possession
«Бойся демона, что не боится Бога»

Год выпуска: 2012
Страна: США, Канада
Производство: Ghost House Pictures, North Box Production
Жанр: ужасы, триллер

Режиссёр: Уле Борнедаль | Ole Bornedal
В ролях: Джеффри Дин Морган, Наташа Калис, Кира Седжвик, Мэдисон Девенпорт, Роб ЛаБелль, Матисьяху, Джей Бразо, Грант Шоу, Нана Гбивонио, Анна Хэган

Перевод: Профессиональный (полное дублирование) + Комментарии + Оригинал (Английский)
Субтитры: softsub (SRT) | русские, английские (2 вида), испанские

Описание:
Девочка покупает винтажную шкатулку на ярмарке в одном из соседних дворов. Поначалу родители не видят повода для беспокойства, когда их младшая дочь становится одержима новой игрушкой. Со временем поведение девочки становится все более странным, а реакции неожиданными, родители пытаются раскрыть секрет шкатулки. Они не подозревают, что в деревянной коробке живет злой дух, который творит страшные вещи со своими хозяевами — их было много и владели они этим «сокровищем» очень недолго. Отец девочки объединяется с бывшей женой в попытках найти способ снять проклятие с их ребенка.



Дата премьеры (мир): 30 августа 2012
Дата премьеры (РФ): 30 августа 2012, «West»
Релиз на DVD: 15 января 2013, «West Video»
Релиз на Blu-Ray: 15 января 2013, «West Video»
Качество: BDRemux 1080p | исх. The.Possession.2012.1080p.Bluray.Remux.AVC.DTS-HD.MA.5.1
Продолжительность: 01:32:13

Формат: MKV
Видео кодек: MPEG-4 AVC Video
Аудио кодек: DTS Audio / Dolby Digital Audio / DTS-HD Master Audio
Видео: 1920x1080p (16:9), 23,976 fps, H.264 ~34 000 kbps avg, 0.683 bit/pixel
Аудио #1: DTS Audio / 768 kbps / 5.1 / 48 kHz / 24-bit | Профессиональный (полное дублирование)
Аудио #2: Dolby Digital Audio / 256 kbps / 2.0 / 48 kHz / 16-bit | Комментарии (Английский)
Аудио #3: Dolby Digital Audio / 256 kbps / 2.0 / 48 kHz / 16-bit | Комментарии (Английский)
Аудио #4: DTS-HD Master Audio / 3455 kbps / 5.1 / 48 kHz / 24-bit (DTS Core: 5.1 / 48 kHz / 1509 kbps / 24-bit) | Оригинал (Английский)
MediaInfo ▼General
Unique ID : 223437566738815646531289872911197173440 (0xA8188292870387569DF360D8591676C0)
Complete name : Z:Rutracker.orgШкатулка проклятия (Одержимость) (The Possession) 2012, США, Канада, ужасы, триллер, BDRemux 1080p GORENOISE.mkv
Format : Matroska
Format version : Version 4 / Version 2
File size : 24.2 GiB
Duration : 1h 32mn
Overall bit rate mode : Variable
Overall bit rate : 37.5 Mbps
Movie name : GORENOISE
Encoded date : UTC 2010-02-22 21:41:31
Writing application : mkvmerge v5.9.0 (On The Loose) built on Dec 9 2012 15:37:01
Writing library : libebml v1.3.0 + libmatroska v1.4.0
Video #1
ID : 1
Format : AVC
Format/Info : Advanced Video Codec
Format profile : [email protected]
Format settings, CABAC : Yes
Format settings, ReFrames : 2 frames
Codec ID : V_MPEG4/ISO/AVC
Duration : 1h 32mn
Bit rate mode : Variable
Bit rate : 34.0 Mbps
Width : 1 920 pixels
Height : 1 080 pixels
Display aspect ratio : 16:9
Frame rate mode : Constant
Frame rate : 23.976 fps
Color space : YUV
Chroma subsampling : 4:2:0
Bit depth : 8 bits
Scan type : Progressive
Bits/(Pixel*Frame) : 0.683
Stream size : 21.9 GiB (90%)
Title : GORENOISE
Language : English
Default : Yes
Forced : No
Audio #2
ID : 2
Format : DTS
Format/Info : Digital Theater Systems
Codec ID : A_DTS
Duration : 1h 32mn
Bit rate mode : Constant
Bit rate : 755 Kbps
Channel(s) : 6 channels
Channel positions : Front: L C R, Side: L R, LFE
Sampling rate : 48.0 KHz
Bit depth : 24 bits
Compression mode : Lossy
Stream size : 498 MiB (2%)
Title : Профессиональный (дублированный) R5
Language : Russian
Default : Yes
Forced : No
Audio #3
ID : 3
Format : DTS
Format/Info : Digital Theater Systems
Format profile : MA / Core
Codec ID : A_DTS
Duration : 1h 32mn
Bit rate mode : Variable
Bit rate : 1 561 Kbps / 1 510 Kbps
Channel(s) : 6 channels
Channel positions : Front: L C R, Side: L R, LFE
Sampling rate : 48.0 KHz
Bit depth : 24 bits
Compression mode : Lossless / Lossy
Title : Ориг
3188153efa6d67a4887b911c3d975a6241b5a9abШкатулка проклятия / The Possession (Уле Борнедаль, ужасы, триллер, 2012) [BDRemux 1080p, Дублированный + Оригинал + Комментарии + SUB] Шкатулка проклятия / The Possession (Уле Борнедаль, ужасы, триллер, 2012) [BDRemux 1080p, Дублированный + Оригинал + Комментарии + SUB] " />

Аплоадер: Админ, дата: 17-01-2013, 15:24, торрент скачан: 359 раз

Понравилась раздача? Посмотрите эти:
  • Охотники на ведьм / Hansel & Gretel: Witch Hunters (Томми Виркола, Ужасы, ф ...
  • Нубы / Noobz (Блейк Фриман, Комедия, 2012) [BDRemux 1080p, Профессиональный ...
  • Дом с паранормальными явлениями / A Haunted House (Майкл Тиддес, Ужасы, ком ...
  • Родительский беспредел / Parental Guidance (Энди Фикмен, Комедия, семейный, ...
  • Самый страшный фильм 3D / Dead Before Dawn 3D (Эйприл Маллен, Ужасы, комеди ...
  • Шкатулка проклятия / The Possession (Уле Борнедаль, Ужасы, триллер, 2012) [ ...
  • Шкатулка проклятия / The Possession (Уле Борнедаль, ужасы, триллер, 2012) [ ...
  • Шкатулка проклятия / The Possession (Уле Борнедаль, Ужасы, триллер, 2012) [ ...
  • Шкатулка проклятия / The Possession (Уле Борнедаль, ужасы, триллер, 2012) [ ...
  • Шкатулка проклятия / The Possession (Уле Борнедаль, ужасы, триллер, 2012) [ ...
  • Шкатулка проклятия / The Possession (Уле Борнедаль, Ужасы, триллер, 2012) [ ...
  • Шкатулка проклятия / The Possession (Уле Борнедаль, ужасы, триллер, 2012) [ ...
  • Шкатулка проклятия / The Possession (Уле Борнедаль, ужасы, триллер, 2012) [ ...
  • Шкатулка проклятия / The Possession (Уле Борнедаль, Ужасы, триллер, 2012) [ ...
  • Притворись моей женой / Just go with it (Деннис Дуган, мелодрама, комедия, ...
  • Рапунцель: Счастлива навсегда / Tangled Ever After ( Нэйтан Грено, Байрон Х ...
  • Бульвар страха / Rosewood Lane (Виктор Сальва, Ужасы, триллер, 2011) [BD-Re ...
  • Призрак в школе / Haunted High (Джеффри Скотт Ландо, ужасы, фантастика, 201 ...
  • Шкатулка проклятия / The Possession (Уле Борнедаль, ужасы, триллер, 2012) [ ...
  • Шкатулка проклятия / The Possession (Уле Борнедаль, Ужасы, триллер, 2012) [ ...
  • Шкатулка проклятия / The Possession (Уле Борнедаль, ужасы, триллер, 2012) [ ...
  • Шкатулка проклятия / The Possession (Уле Борнедаль, Ужасы, триллер, 2012) [ ...
  • Шкатулка проклятия / The Possession (Уле Борнедаль, Ужасы, триллер, 2012) [ ...
  • [iPhone, iPod] Шкатулка проклятия / The Possession (Уле Борнедаль, Ужасы, Т ...
  • [Трейлер] Шкатулка проклятия / The Possession (Уле Борнедаль, ужасы, трилле ...
  • Информация
    Посетители, находящиеся в группе Гости, не могут оставлять комментарии к данной публикации.